<?xml version="1.0" encoding="UTF-8" standalone="no"?>
<!DOCTYPE svg  PUBLIC '-//W3C//DTD SVG 1.1//EN'  'http://www.w3.org/Graphics/SVG/1.1/DTD/svg11.dtd'>
<svg xmlns="http://www.w3.org/2000/svg">
<defs>
<font id="Roboto-Italic" horiz-adv-x="1096">
<font-face slope="-12" underline-position="-100" font-weight="400" descent="-410" panose-1="2 0 0 0 0 0 0 0 0 0" units-per-em="2048" unicode-range="U+0020-25CA" bbox="-219 -495 1926 1932" x-height="1082" underline-thickness="100" font-family="Roboto" ascent="1638" font-style="italic" cap-height="1456"/>
<missing-glyph horiz-adv-x="2048"/>
<glyph glyph-name=".notdef" horiz-adv-x="2048"/>
<glyph glyph-name=".null" horiz-adv-x="0"/>
<glyph glyph-name="nonmarkingreturn" horiz-adv-x="2048"/>
<glyph glyph-name="space" horiz-adv-x="485" unicode=" "/>
<glyph glyph-name="exclam" horiz-adv-x="521" unicode="!" d="M272 0h-191l41 204h191zM369 478h-194l195 978h194z"/>
<glyph glyph-name="quotedbl" horiz-adv-x="642" unicode='&quot;' d="M681 1290l-101 -250h-93l39 248l44 272h155zM385 1290l-100 -250h-94l39 240l45 280h154z"/>
<glyph glyph-name="numbersign" horiz-adv-x="1197" unicode="#" d="M486 550h229l133 348h-229zM661 410h-229l-157 -410h-147l157 410h-218l28 140h243l134 348h-236l28 142h262l160 416h147l-159 -416h229l160 416h147l-159 -416h180l-28 -142h-207l-133 -348h201l-28 -140h-227l-157 -410h-148z"/>
<glyph glyph-name="dollar" horiz-adv-x="1085" unicode="$" d="M777 376q4 22 4 42q0 65 -42 120t-167 105q-178 61 -248 150t-70 204q0 39 7 81q27 171 130.5 272.5t261.5 121.5l35 221h154l-36 -223q147 -26 204.5 -127t57.5 -220q0 -54 -10 -116h-192q8 48 8 90q0 79 -35 146.5t-137 67.5q-101 0 -166 -62.5t-81 -167.5 q-4 -26 -4 -49q0 -66 39.5 -117t174.5 -105q180 -66 246 -151.5t66 -196.5q0 -39 -7 -84q-29 -178 -139.5 -277t-282.5 -117l-30 -192h-154l30 192q-151 20 -225 113t-74 222q0 51 10 110h193q-8 -50 -8 -90q0 -89 48.5 -142t152.5 -53q113 0 190.5 62.5t95.5 169.5z"/>
<glyph glyph-name="percent" horiz-adv-x="1401" unicode="%" d="M368 110l-93 67l890 1138l93 -67zM866 279q-6 -30 -6 -56q0 -42 21 -82t91 -40q61 0 110 52.5t64 125.5l15 78q5 29 5 53q0 43 -21 84t-88 41q-63 0 -112.5 -53t-63.5 -125zM739 357q27 135 119 217.5t223 82.5q120 0 174.5 -75.5t54.5 -157.5q0 -32 -7 -67l-15 -78 q-28 -136 -119.5 -218t-220.5 -82q-121 0 -176 75t-55 156q0 33 7 69zM378 1099q-6 -30 -6 -56q0 -42 21 -81.5t91 -39.5q61 0 110 52t64 125l15 77q5 29 5 54q0 43 -21 84t-88 41q-63 0 -112.5 -53.5t-63.5 -125.5zM251 1176q27 135 119 218t223 83q120 0 174.5 -75.5 t54.5 -157.5q0 -32 -7 -68l-15 -77q-28 -135 -119 -217t-221 -82q-121 0 -176 75t-55 156q0 33 7 68z"/>
<glyph glyph-name="ampersand" horiz-adv-x="1199" unicode="&amp;" d="M481 1127q-3 -19 -3 -39q0 -35 13 -81t52 -113l137 92q59 38 84 82t35 99q2 14 2 26q0 47 -33 88t-104 41q-70 0 -120 -57t-63 -138zM456 133q63 0 131 24.5t132 70.5l-261 433l-39 -27q-93 -68 -128.5 -130t-43.5 -112q-5 -31 -5 -59q0 -77 45.5 -138.5t168.5 -61.5z M54 392q20 126 99 214.5t227 181.5q-59 99 -78 162.5t-19 113.5q0 30 5 61q27 175 132 263.5t268 88.5q143 0 217.5 -83.5t74.5 -180.5q0 -22 -4 -46q-17 -102 -77 -170.5t-172 -145.5l-110 -78l245 -403q48 65 81 141.5t47 161.5h172q-23 -137 -76 -246t-138 -197l140 -230 h-231l-59 98q-84 -58 -177.5 -88.5t-188.5 -30.5q-196 0 -290.5 103t-94.5 233q0 37 7 77z"/>
<glyph glyph-name="quotesingle" horiz-adv-x="345" unicode="&apos;" d="M393 1337l-105 -282h-93l41 265l39 240h154z"/>
<glyph glyph-name="parenleft" horiz-adv-x="647" unicode="(" d="M152 591q65 410 256 679t374 365l6 -1l18 -115q-143 -108 -274.5 -344t-186.5 -582l-2 -13q-30 -186 -30 -336q0 -142 41 -310.5t152 -288.5l-53 -108l-6 1q-149 93 -235 319t-86 445q0 132 24 280z"/>
<glyph glyph-name="parenright" horiz-adv-x="653" unicode=")" d="M539 582q-66 -410 -257.5 -678.5t-373.5 -366.5l-6 1l-20 107q141 106 274 346.5t190 588.5l2 13q27 173 27 317q0 152 -44.5 327.5t-147.5 290.5l55 108l6 -1q146 -94 233 -321.5t87 -449.5q0 -129 -23 -273z"/>
<glyph glyph-name="asterisk" horiz-adv-x="834" unicode="*" d="M412 982l-252 89l79 154l248 -111l58 342h157l-78 -348l290 110l15 -156l-294 -89l122 -270l-148 -96l-106 287l-216 -279l-110 93z"/>
<glyph glyph-name="plus" horiz-adv-x="1091" unicode="+" d="M712 783h366l-36 -178h-365l-92 -459h-193l92 459h-370l36 178h369l85 423h193z"/>
<glyph glyph-name="comma" horiz-adv-x="387" unicode="," d="M229 48l-208 -306h-113l129 316l32 163h194z"/>
<glyph glyph-name="hyphen" horiz-adv-x="529" unicode="-" d="M516 538h-457l30 154h457z"/>
<glyph glyph-name="period" horiz-adv-x="527" unicode="." d="M260 0h-191l40 202h191z"/>
<glyph glyph-name="slash" horiz-adv-x="805" unicode="/" d="M72 -125h-164l882 1581h162z"/>
<glyph glyph-name="zero" horiz-adv-x="1082" unicode="0" d="M883 942q19 97 19 169q0 76 -32 143.5t-151 67.5q-109 0 -193.5 -97.5t-121.5 -282.5l-85 -427q-19 -97 -19 -168q0 -77 32.5 -145.5t151.5 -68.5q109 0 192.5 98t121.5 284zM999 555q-60 -297 -200.5 -436.5t-345.5 -139.5q-187 0 -263 123.5t-76 266.5q0 84 20 186 l69 345q59 296 201 436.5t346 140.5q188 0 263 -124t75 -268q0 -84 -20 -185z"/>
<glyph glyph-name="one" horiz-adv-x="1085" unicode="1" d="M575 0h-193l249 1245l-311 -4l25 123l521 92z"/>
<glyph glyph-name="two" horiz-adv-x="1085" unicode="2" d="M925 0h-883l22 135l528 530q141 142 195.5 226.5t69.5 172.5q5 32 5 61q0 72 -38.5 134.5t-132.5 62.5q-133 0 -213.5 -78.5t-102.5 -216.5h-184l-2 6q27 195 167 319.5t359 124.5q176 0 259 -102t83 -227q0 -37 -6 -77q-20 -124 -101.5 -239.5t-224.5 -255.5l-420 -416 l2 -6h643z"/>
<glyph glyph-name="three" horiz-adv-x="1085" unicode="3" d="M418 778l7 41h164q113 0 173.5 66t79.5 182q6 40 6 73q0 75 -38 128.5t-147 53.5q-100 0 -175.5 -68t-92.5 -179h-184l-2 6q22 171 154.5 283.5t323.5 112.5q182 0 268 -95.5t86 -228.5q0 -42 -7 -90q-16 -95 -79.5 -183t-173.5 -134q111 -45 142 -122.5t31 -149.5 q0 -33 -5 -68q-34 -207 -172 -317t-330 -110q-180 0 -273.5 95.5t-93.5 220.5q0 40 8 84l2 5h186q-5 -33 -5 -61q0 -77 44 -133.5t156 -56.5q108 0 184.5 68.5t98.5 200.5q8 48 8 87q0 75 -37 125.5t-161 50.5h-164z"/>
<glyph glyph-name="four" horiz-adv-x="1085" unicode="4" d="M275 495l3 -5h394l133 668l-6 2l-19 -36zM864 490h183l-31 -154h-183l-67 -336h-192l67 336h-605l22 111l796 1009h203z"/>
<glyph glyph-name="five" horiz-adv-x="1085" unicode="5" d="M201 657l206 799h681l-28 -175h-517l-109 -409q46 34 101 56.5t119 24.5h6q185 0 258 -112.5t73 -252.5q0 -58 -11 -124q-37 -227 -166 -356t-341 -129q-166 0 -254.5 88.5t-88.5 215.5q0 45 9 95l2 5h175q-6 -35 -6 -65q0 -76 44 -130.5t143 -54.5q107 0 186.5 89 t103.5 240q7 46 7 85q0 88 -41 161.5t-154 73.5q-100 0 -154 -35.5t-86 -106.5z"/>
<glyph glyph-name="six" horiz-adv-x="1085" unicode="6" d="M632 820q-89 0 -160.5 -40.5t-117.5 -107.5l-19 -120q-12 -75 -12 -137q0 -110 49.5 -196t167.5 -86q104 0 183 103.5t103 253.5q8 48 8 90q0 88 -42.5 164t-159.5 76zM802 1477q68 0 135.5 -17.5t105.5 -42.5l-64 -151q-40 25 -87 40.5t-114 15.5q-139 0 -250 -126 t-142 -325l-2 -13q67 52 147.5 80.5t167.5 28.5q174 0 252 -118t78 -254q0 -50 -9 -105q-37 -234 -173 -372.5t-331 -138.5q-193 0 -288 134t-95 307q0 70 13 151l45 278q46 291 218.5 459.5t392.5 168.5z"/>
<glyph glyph-name="seven" horiz-adv-x="1085" unicode="7" d="M1135 1301q-300 -311 -419 -549t-215 -595l-41 -157h-193l41 157q93 344 248 615t390 529h-731l25 155h920z"/>
<glyph glyph-name="eight" horiz-adv-x="1085" unicode="8" d="M882 1072q8 39 8 72q0 66 -38 122t-132 56q-88 0 -163 -69.5t-97 -180.5q-8 -41 -8 -76q0 -65 37 -117t134 -52q87 0 162 68t97 177zM786 398q8 40 8 75q0 76 -46.5 137.5t-157.5 61.5q-104 0 -191.5 -78t-110.5 -196q-9 -44 -9 -81q0 -73 44.5 -128.5t161.5 -55.5 q103 0 189.5 72t111.5 193zM1076 1076q-25 -123 -100.5 -207.5t-185.5 -123.5q105 -47 149.5 -125.5t44.5 -155.5q0 -34 -7 -70q-44 -216 -183 -315.5t-340 -99.5q-188 0 -279.5 93t-91.5 220q0 48 11 102q26 133 113 225t215 133q-91 44 -126.5 114.5t-35.5 137.5 q0 35 8 72q41 206 168.5 303.5t314.5 97.5q168 0 251.5 -91.5t83.5 -211.5q0 -46 -10 -98z"/>
<glyph glyph-name="nine" horiz-adv-x="1085" unicode="9" d="M538 612q95 0 170 48t116 121l25 154q12 77 12 138q0 98 -40 173.5t-171 75.5q-93 0 -180.5 -103t-112.5 -261q-9 -57 -9 -106q0 -89 39.5 -164.5t150.5 -75.5zM431 133q126 0 225 110t134 323l4 25q-55 -67 -127 -100.5t-154 -33.5q-191 0 -275.5 114.5t-84.5 263.5 q0 58 11 123q38 237 182.5 378t321.5 141q206 0 294.5 -122.5t88.5 -288.5q0 -70 -13 -151l-55 -347q-48 -297 -203 -443t-373 -146q-69 0 -142 14.5t-126 44.5l53 149q51 -29 108 -41.5t131 -12.5z"/>
<glyph glyph-name="colon" horiz-adv-x="502" unicode=":" d="M261 0h-191l40 202h191zM437 880h-191l40 202h191z"/>
<glyph glyph-name="semicolon" horiz-adv-x="510" unicode=";" d="M438 880h-191l40 202h191zM279 48l-208 -306h-113l129 316l32 163h194z"/>
<glyph glyph-name="less" horiz-adv-x="976" unicode="&lt;" d="M346 579l-86 -18v-6l77 -19l468 -228l-41 -201l-682 379l22 108l8 41l834 378l-41 -201z"/>
<glyph glyph-name="equal" horiz-adv-x="1083" unicode="=" d="M918 407h-775l33 164h775zM1002 823h-775l32 164h775z"/>
<glyph glyph-name="greater" horiz-adv-x="1008" unicode="&gt;" d="M208 818l39 195l722 -378l-8 -40l-14 -69l-8 -40l-874 -379l40 196l599 238l86 18v6l-77 19z"/>
<glyph glyph-name="question" horiz-adv-x="921" unicode="?" d="M446 0h-200l42 208h200zM329 410q30 145 64 200.5t149 148.5q125 132 170 188t63 144q8 40 8 73q0 59 -32.5 103t-128.5 44q-77 0 -148 -50.5t-89 -144.5h-185l-2 6q30 161 158.5 258t298.5 97q173 0 248.5 -87.5t75.5 -198.5q0 -44 -10 -95q-27 -137 -107.5 -234 t-222.5 -221q-60 -54 -79 -97t-37 -134h-194z"/>
<glyph glyph-name="at" horiz-adv-x="1710" unicode="@" d="M679 416q-28 -104 -28 -171q0 -25 9 -72t75 -47q77 0 152 51q31 22 61 57q5 28 14 59l151 540q-21 11 -45 17.5t-51 6.5q-108 0 -192.5 -111.5t-145.5 -329.5zM1628 502q-51 -214 -185 -368.5t-342 -154.5q-63 0 -105.5 42t-50.5 117q-63 -80 -136.5 -119.5t-162.5 -39.5 q-108 0 -139 88.5t-31 156.5q0 85 30 192q73 259 210.5 415.5t290.5 156.5q92 0 152 -27.5t116 -78.5l-4 -4h6l-164 -585q-19 -68 -19 -110q0 -26 13 -54.5t60 -28.5q104 0 198.5 116t135.5 286q43 178 43 319q0 162 -81 326t-390 164q-266 0 -493.5 -235t-313.5 -598 q-42 -171 -42 -309q0 -166 85.5 -335t374.5 -169q77 0 168.5 21.5t155.5 56.5l15 -107q-72 -42 -173.5 -65.5t-192.5 -23.5q-331 0 -453.5 203t-122.5 418q0 142 40 310q102 423 368 688t612 265q328 0 447.5 -203.5t119.5 -415.5q0 -142 -40 -310z"/>
<glyph glyph-name="A" horiz-adv-x="1270" unicode="A" d="M437 540h445l-88 647l-6 2zM905 375h-558l-203 -375h-196l816 1456h164l225 -1456h-197z"/>
<glyph glyph-name="B" horiz-adv-x="1233" unicode="B" d="M446 837h295q90 0 167.5 61.5t98.5 167.5q8 39 8 72q1 71 -37 108q-54 55 -184 55h-255zM415 683l-105 -529h312q113 0 197.5 67.5t109.5 187.5q10 53 10 96q-1 67 -25 109q-40 69 -158 69h-341zM86 0l291 1456h448q199 0 306 -100q78 -73 78 -197q0 -45 -10 -97 q-21 -103 -92 -177t-174 -110q117 -27 167 -129q32 -66 32 -145q0 -43 -10 -90q-43 -213 -181 -312t-350 -99h-505z"/>
<glyph glyph-name="C" horiz-adv-x="1214" unicode="C" d="M1134 447l2 -6q-61 -214 -197 -338t-356 -124q-219 -1 -353 183q-96 131 -96 303q0 68 15 142l52 260q57 289 215.5 449.5t390.5 160.5q215 1 340 -137q103 -113 103 -280q0 -36 -5 -74l-2 -5h-187q1 21 1 40q0 129 -58 209q-67 92 -214 92q-138 0 -244.5 -128.5 t-145.5 -324.5l-53 -262q-15 -75 -15 -141q-1 -116 47 -200q74 -132 230 -133q134 0 212.5 76t132.5 238h185z"/>
<glyph glyph-name="D" horiz-adv-x="1265" unicode="D" d="M539 1301l-229 -1147h263q171 0 291 128.5t162 336.5l40 201q13 67 13 127q0 130 -79 242t-272 112h-189zM86 0l291 1456h382q254 0 383.5 -160t129.5 -342q0 -66 -14 -137l-39 -198q-61 -301 -234 -460t-443 -159h-456z"/>
<glyph glyph-name="E" horiz-adv-x="1125" unicode="E" d="M1030 675h-616l-104 -521h711l-31 -154h-904l291 1456h893l-31 -155h-700l-94 -471h616z"/>
<glyph glyph-name="F" horiz-adv-x="1121" unicode="F" d="M1020 644h-613l-128 -644h-193l291 1456h900l-31 -155h-707l-101 -502h613z"/>
<glyph glyph-name="G" horiz-adv-x="1308" unicode="G" d="M1108 193q-65 -81 -198 -147.5t-323 -66.5q-228 0 -343 145.5t-115 314.5q0 66 15 139l60 300q55 282 233 440.5t417 158.5q214 0 316 -115t102 -278q0 -23 -2 -46l-3 -6h-185v13q0 123 -56 200t-203 77q-141 0 -264.5 -127t-160.5 -315l-60 -302q-15 -72 -15 -133 q0 -115 65.5 -213.5t229.5 -98.5q104 0 186 33.5t120 74.5l66 331h-288l31 155h481z"/>
<glyph glyph-name="H" horiz-adv-x="1370" unicode="H" d="M1114 0h-193l128 643h-642l-128 -643h-193l291 1456h193l-132 -658h642l132 658h193z"/>
<glyph glyph-name="I" horiz-adv-x="552" unicode="I" d="M287 0h-194l291 1456h194z"/>
<glyph glyph-name="J" horiz-adv-x="1061" unicode="J" d="M916 1456h193l-210 -1053q-42 -208 -177 -316t-323 -108q-184 0 -269 91.5t-85 211.5q0 53 13 114l3 5h186q-11 -54 -11 -97q0 -71 39 -121t155 -50q92 0 171.5 74.5t104.5 195.5z"/>
<glyph glyph-name="K" horiz-adv-x="1154" unicode="K" d="M513 658h-128l-131 -658h-194l291 1456h194l-127 -633h142l535 633h237l2 -5l-654 -726l385 -725h-220z"/>
<glyph glyph-name="L" horiz-adv-x="1042" unicode="L" d="M310 154h637l-31 -154h-830l291 1456h193z"/>
<glyph glyph-name="M" horiz-adv-x="1686" unicode="M" d="M624 1456l186 -1182l5 -1l659 1183h246l-291 -1456h-193l115 576l134 573l-5 2l-659 -1151h-128l-198 1148h-6l-95 -572l-115 -576h-193l291 1456h247z"/>
<glyph glyph-name="N" horiz-adv-x="1370" unicode="N" d="M1114 0h-194l-413 1112l-6 -1l-222 -1111h-193l291 1456h193l413 -1110l6 1l222 1109h194z"/>
<glyph glyph-name="O" horiz-adv-x="1311" unicode="O" d="M1093 850q14 70 14 130q-1 122 -57 208q-84 128 -255 127q-144 0 -254.5 -124t-149.5 -322l-53 -262q-15 -75 -15 -139q0 -118 51 -200q79 -128 241 -128q154 0 269.5 123.5t156.5 324.5zM1234 588q-58 -287 -230.5 -448t-420.5 -161q-224 0 -357 184q-96 132 -96 304 q0 67 15 140l52 260q57 286 223.5 448t406.5 162q232 0 371 -185q102 -135 102 -310q0 -64 -14 -134z"/>
<glyph glyph-name="P" horiz-adv-x="1236" unicode="P" d="M426 738h333q124 0 210.5 81t110.5 199q8 43 8 80q0 74 -32 126q-50 78 -185 77h-332zM395 584l-116 -584h-193l291 1456h525q202 0 306 -122q76 -89 75 -216q0 -47 -10 -98q-43 -211 -183.5 -323.5t-361.5 -112.5h-333z"/>
<glyph glyph-name="Q" horiz-adv-x="1311" unicode="Q" d="M1093 850q14 70 14 130q0 122 -70.5 228.5t-241.5 106.5q-144 0 -254.5 -124t-149.5 -322l-53 -262q-15 -75 -15 -139q0 -118 65 -223t227 -105q154 0 269.5 123.5t156.5 324.5zM1234 588q-32 -157 -100.5 -279t-167.5 -201l175 -211l-157 -120l-190 236 q-50 -16 -103 -25t-108 -9q-224 0 -338.5 158t-114.5 330q0 67 15 140l52 260q57 286 223.5 448t406.5 162q232 0 352.5 -160t120.5 -335q0 -64 -14 -134z"/>
<glyph glyph-name="R" horiz-adv-x="1273" unicode="R" d="M437 786h282q140 0 224.5 65.5t110.5 191.5q9 44 9 81q0 71 -41.5 124t-180.5 53h-301zM406 631l-126 -631h-194l291 1455h495q208 0 296.5 -93t88.5 -219q0 -48 -11 -102q-25 -121 -95.5 -202t-186.5 -128q98 -41 126 -111t28 -135q0 -44 -10 -94l-27 -137 q-12 -57 -12 -101q0 -12 2.5 -43t29.5 -66l-5 -24h-199q-27 31 -27 87q0 6 1.5 41.5t16.5 107.5l27 133q9 43 9 80q0 69 -39 125.5t-144 56.5h-335z"/>
<glyph glyph-name="S" horiz-adv-x="1167" unicode="S" d="M886 334q7 33 7 63q-1 72 -41 119q-56 67 -227 130q-209 70 -299 174q-62 73 -63 190q0 51 12 110q34 174 167.5 265.5t325.5 91.5q214 1 332 -119q86 -87 86 -220q0 -50 -12 -107l-2 -5h-186q8 38 8 72q0 85 -49 143q-68 81 -208 81q-99 0 -175.5 -57.5t-93.5 -142.5 q-8 -40 -8 -74q0 -69 34 -109q51 -60 232 -129q214 -78 302 -180q62 -72 62 -187q0 -50 -11 -107q-36 -182 -172 -269.5t-337 -87.5q-216 1 -360 109q-107 80 -106 225q0 51 13 110l2 6h185q-9 -45 -9 -82q1 -101 67 -149q92 -66 239 -65q101 0 184 57t101 144z"/>
<glyph glyph-name="T" horiz-adv-x="1124" unicode="T" d="M1264 1301h-431l-260 -1301h-193l260 1301h-430l31 155h1054z"/>
<glyph glyph-name="U" horiz-adv-x="1300" unicode="U" d="M1372 1456l-197 -987q-51 -254 -216.5 -372t-404.5 -118q-210 1 -332 129q-87 92 -88 237q0 58 14 124l197 987h193l-197 -987q-12 -61 -12 -110q0 -93 44 -146q68 -80 212 -80q140 0 252 86.5t145 249.5l197 987h193z"/>
<glyph glyph-name="V" horiz-adv-x="1235" unicode="V" d="M572 362l13 -109l6 -1l48 110l518 1094h209l-736 -1456h-165l-269 1456h208z"/>
<glyph glyph-name="W" horiz-adv-x="1689" unicode="W" d="M458 504l-4 -168l5 -1l62 169l395 952h170l93 -952l6 -173l6 -1l54 174l348 952h192l-556 -1456h-172l-100 1010l-4 120l-5 1l-41 -121l-428 -1010h-172l-89 1456h192z"/>
<glyph glyph-name="X" horiz-adv-x="1219" unicode="X" d="M684 888l398 568h234l-543 -722l318 -734h-230l-223 578l-407 -578h-234l553 734l-311 722h231z"/>
<glyph glyph-name="Y" horiz-adv-x="1194" unicode="Y" d="M656 739l6 -1l486 718h219l-660 -943l-103 -513h-192l105 526l-279 930h220z"/>
<glyph glyph-name="Z" horiz-adv-x="1078" unicode="Z" d="M260 154h683l-31 -154h-877l9 146l823 1155h-614l31 155h832l-28 -141z"/>
<glyph glyph-name="bracketleft" horiz-adv-x="531" unicode="[" d="M672 1509h-172l-266 -1666h172l-25 -155h-366l316 1976h366z"/>
<glyph glyph-name="backslash" horiz-adv-x="802" unicode="\" d="M246 1456h182l249 -1581h-182z"/>
<glyph glyph-name="bracketright" horiz-adv-x="531" unicode="]" d="M213 1664h366l-316 -1976h-366l25 155h173l266 1666h-173z"/>
<glyph glyph-name="asciicircum" horiz-adv-x="807" unicode="^" d="M300 729h-179l423 727h130l132 -727h-177l-66 419l-1 60l-6 1l-25 -61z"/>
<glyph glyph-name="underscore" horiz-adv-x="882" unicode="_" d="M757 -154h-864l31 154h864z"/>
<glyph glyph-name="grave" horiz-adv-x="613" unicode="`" d="M590 1211h-153l-196 266h231z"/>
<glyph glyph-name="a" horiz-adv-x="1060" unicode="a" d="M411 144q81 0 165 47t130 111l40 199h-191q-99 0 -178 -61t-94 -140q-5 -26 -5 -48q0 -42 20 -68q31 -40 113 -40zM667 0q0 49 2 80.5t7 64.5q-67 -71 -153.5 -118.5t-173.5 -47.5q-149 1 -219 89q-49 61 -48 151q0 40 9 85q32 165 162.5 247.5t334.5 82.5h185l21 107 q6 33 6 60q0 57 -28 93q-42 52 -140 53q-84 0 -152 -49.5t-81 -115.5h-183l-2 6q20 125 150 219.5t310 94.5q160 0 254 -96q69 -70 69 -181q0 -40 -9 -86l-104 -521q-13 -61 -18 -113q-2 -26 -2 -52.5t2 -52.5h-199z"/>
<glyph glyph-name="b" d="M824 501q18 90 18 165q0 87 -35 181.5t-166 94.5q-72 0 -133.5 -46t-109.5 -123l-95 -478q24 -71 78 -113.5t139 -42.5q118 0 193 90.5t107 250.5zM1013 480q-50 -249 -169 -375t-306 -126q-85 0 -156 48t-113 131l-51 -158h-167l312 1560h193l-115 -576q57 57 128 87.5 t154 30.5q175 0 244 -141t69 -282q0 -83 -19 -178z" unicode="b"/>
<glyph glyph-name="c" horiz-adv-x="1024" unicode="c" d="M501 133q86 0 164.5 61t92.5 148h173l2 -6q-20 -146 -156 -251.5t-300 -105.5q-212 0 -309 156q-70 113 -70 264q0 58 10 121l7 42q37 239 177.5 389.5t363.5 150.5q172 0 270 -112q75 -86 74 -202q0 -36 -7 -74l-2 -5h-175q4 26 4 50q0 71 -38 121q-51 67 -150 67 q-136 0 -217 -113t-106 -272l-7 -42q-11 -68 -11 -126q0 -88 25 -154q41 -108 185 -107z"/>
<glyph glyph-name="d" d="M307 520q-15 -73 -15 -133q0 -83 38 -165.5t170 -82.5q71 0 127.5 39.5t103.5 112.5l102 511q-26 64 -78.5 102t-130.5 38q-120 0 -198.5 -108.5t-114.5 -292.5zM117 541q55 279 176.5 420t312.5 141q83 0 150.5 -34.5t110.5 -97.5l118 590h193l-312 -1560h-166l7 104 q-60 -62 -132.5 -93.5t-156.5 -31.5q-174 0 -247.5 129.5t-73.5 263.5q0 70 16 148z" unicode="d"/>
<glyph glyph-name="e" horiz-adv-x="1021" unicode="e" d="M611 947q-84 0 -162.5 -84t-112.5 -208l3 -6h445l4 26q6 38 6 71q0 74 -29 126q-42 76 -154 75zM486 -21q-204 -1 -308 151q-77 111 -77 269q0 57 10 121l7 44q38 240 189.5 389t327.5 149q199 0 285 -133q62 -95 62 -234q0 -55 -10 -117l-20 -123h-652q-6 -49 -6 -92 q0 -103 36 -172q52 -98 180 -98q88 0 165 29.5t134 77.5l55 -128q-61 -57 -156 -95t-222 -38z"/>
<glyph glyph-name="f" horiz-adv-x="672" unicode="f" d="M137 0l187 936h-156l29 146h156l28 137q36 184 137.5 273t257.5 89q30 0 62 -6t69 -15l-52 -150q-16 4 -39 7t-48 3q-74 0 -124.5 -52.5t-69.5 -148.5l-28 -137h205l-29 -146h-205l-187 -936h-193z"/>
<glyph glyph-name="g" horiz-adv-x="1095" unicode="g" d="M309 520q-14 -70 -14 -130q0 -85 39.5 -168t171.5 -83q71 0 128.5 40.5t105.5 115.5l101 504q-27 65 -80 104t-131 39q-120 0 -200.5 -109.5t-116.5 -291.5zM120 541q55 278 178.5 419.5t314.5 141.5q89 0 159 -39t113 -111l42 130h164l-213 -1068 q-45 -224 -180.5 -337.5t-351.5 -113.5q-68 0 -151.5 22t-138.5 58l79 153q41 -30 108 -48.5t134 -18.5q121 0 200.5 75.5t106.5 209.5l15 74q-57 -54 -126 -81.5t-148 -27.5q-174 0 -249.5 130t-75.5 265q0 69 16 146z"/>
<glyph glyph-name="h" d="M434 951q67 73 148.5 112t172.5 39q152 0 212.5 -87t60.5 -197q0 -63 -15 -140l-136 -678h-193l136 680q12 59 12 104q0 63 -31 110.5t-138 47.5q-67 0 -136 -39.5t-124 -105.5l-159 -797h-193l312 1560h193z" unicode="h"/>
<glyph glyph-name="i" horiz-adv-x="496" unicode="i" d="M531 1359h-193l40 201h193zM259 0h-193l216 1082h193z"/>
<glyph glyph-name="j" horiz-adv-x="509" unicode="j" d="M541 1363h-194l39 197h194zM489 1082l-234 -1171q-36 -178 -131.5 -263t-242.5 -85q-27 0 -51 4.5t-49 13.5l44 155q13 -5 37 -8.5t37 -3.5q55 0 99 44.5t64 142.5l234 1171h193z"/>
<glyph glyph-name="k" horiz-adv-x="992" unicode="k" d="M463 499h-118l-100 -499h-193l312 1560h193l-181 -904h117l347 426h224l2 -5l-431 -487l270 -590h-227z"/>
<glyph glyph-name="l" horiz-adv-x="496" unicode="l" d="M259 0h-193l312 1560h193z"/>
<glyph glyph-name="m" horiz-adv-x="1671" unicode="m" d="M427 953q63 72 146 110.5t183 38.5q91 0 153.5 -49t82.5 -146q64 92 152 143.5t194 51.5q143 0 200.5 -93.5t57.5 -205.5q0 -70 -17 -156l-129 -647h-194l130 649q16 83 16 141q0 61 -26.5 106.5t-128.5 45.5q-82 0 -155 -72.5t-106 -177.5q-1 -2 -1 -3v-2l-137 -687 h-194l130 649q15 77 15 132q0 62 -27.5 111.5t-127.5 49.5q-76 0 -136 -38.5t-103 -106.5l-160 -797h-193l216 1082h172z"/>
<glyph glyph-name="n" d="M423 933q66 82 149.5 125.5t179.5 43.5q153 0 227 -104q47 -66 47 -176q0 -62 -15 -139l-137 -683h-193l136 679q13 67 13 115q0 60 -21 92q-38 56 -148 56q-70 0 -139 -42.5t-121 -113.5l-157 -786h-193l216 1082h173z" unicode="n"/>
<glyph glyph-name="o" d="M304 529q-11 -69 -11 -127q1 -94 29 -160q46 -108 177 -109q122 0 208 113.5t113 282.5l3 22q10 66 10 122q0 95 -29 164q-47 110 -176 110q-123 0 -208.5 -114t-112.5 -282zM114 551q40 250 183.5 400.5t354.5 150.5q202 0 302 -156q73 -114 73 -271q0 -59 -10 -124 l-3 -22q-41 -251 -184.5 -400.5t-354.5 -149.5q-203 0 -303 156q-72 112 -72 267q0 60 11 127z" unicode="o"/>
<glyph glyph-name="p" d="M822 501q17 84 17 155q0 92 -39 189t-170 97q-67 0 -124 -39t-103 -107l-106 -529q26 -63 78 -98.5t133 -35.5q119 0 198 93.5t112 253.5zM1011 480q-50 -250 -168.5 -375.5t-305.5 -125.5q-87 0 -156.5 33t-114.5 96l-105 -524h-193l299 1498h166l-7 -107 q60 62 134.5 94.5t160.5 32.5q175 0 244 -141t69 -282q0 -83 -19 -178z" unicode="p"/>
<glyph glyph-name="q" d="M307 520q-15 -73 -15 -134q0 -84 38 -168.5t169 -84.5q64 0 117.5 36.5t99.5 102.5l111 553q-28 57 -78.5 89.5t-123.5 32.5q-120 0 -199 -111t-115 -295zM117 541q55 279 176.5 420t312.5 141q84 0 152 -33t111 -96l36 109h166l-299 -1498h-193l99 495 q-56 -49 -121.5 -74.5t-138.5 -25.5q-174 0 -247.5 129.5t-73.5 263.5q0 70 16 148z" unicode="q"/>
<glyph glyph-name="r" horiz-adv-x="679" unicode="r" d="M722 908l-106 6q-66 0 -121.5 -37.5t-96.5 -105.5l-154 -771h-193l216 1082h173l-12 -145q56 79 126.5 122t151.5 43q20 0 43.5 -3.5t34.5 -7.5z"/>
<glyph glyph-name="s" horiz-adv-x="1010" unicode="s" d="M695 287q2 15 2 29q0 47 -29 79q-38 41 -158 72q-178 43 -260 117q-66 59 -65 151q0 23 4 49q22 137 141 227.5t289 90.5t262 -98q72 -76 72 -177q0 -28 -6 -58l-3 -6h-185q3 16 3 30q0 55 -35 99q-44 56 -132 55q-90 0 -146 -46.5t-66 -110.5q-3 -16 -3 -31 q0 -45 26 -71q34 -35 157 -65q185 -43 266 -119q65 -61 65 -155q0 -23 -4 -48q-24 -149 -146 -235.5t-300 -86.5q-186 0 -284 106q-76 82 -76 184q0 29 6 60l2 6h185q-2 -19 -2 -37q0 -76 47 -116q58 -48 146 -49q91 0 153.5 43t73.5 111z"/>
<glyph glyph-name="t" horiz-adv-x="684" unicode="t" d="M576 1343l-53 -261h187l-29 -146h-187l-131 -657q-7 -35 -7 -61q0 -33 17 -55t66 -22q23 0 55.5 4.5t51.5 9.5l-1 -135q-29 -18 -82.5 -29.5t-105.5 -11.5q-105 0 -151.5 61t-46.5 141q0 44 11 98l131 657h-158l29 146h158l53 261h193z"/>
<glyph glyph-name="u" d="M700 0l17 148q-64 -83 -145.5 -126t-178.5 -43q-155 0 -229 115q-46 71 -46 186q0 73 18 164l127 638h193l-128 -640q-20 -97 -20 -160q0 -56 16 -84q33 -60 133 -59q89 0 161.5 44t122.5 122l155 777h193l-216 -1082h-173z" unicode="u"/>
<glyph glyph-name="v" horiz-adv-x="972" unicode="v" d="M460 319l3 -64l6 -1l25 65l348 763h197l-542 -1082h-145l-201 1082h198z"/>
<glyph glyph-name="w" horiz-adv-x="1452" unicode="w" d="M393 394l-4 -115l6 -2l46 117l336 688h154l63 -688l-1 -134l6 -1l52 135l291 688h192l-508 -1082h-155l-58 659l-6 176l-6 1l-75 -177l-320 -659h-155l-76 1082h192z"/>
<glyph glyph-name="x" horiz-adv-x="972" unicode="x" d="M520 683l270 399h225l-410 -535l245 -547h-221l-149 409l-280 -409h-223l421 547l-239 535h222z"/>
<glyph glyph-name="y" horiz-adv-x="972" unicode="y" d="M442 401l5 -123l6 -1l402 805h215l-670 -1248q-62 -109 -150 -190t-208 -81q-21 0 -56 5.5t-54 10.5l51 155l29 -2q43 -3 53 -3q52 0 104.5 60t84.5 120l66 113l-161 1060h216z"/>
<glyph glyph-name="z" horiz-adv-x="972" unicode="z" d="M269 159l2 -5h569l-31 -154h-801l28 138l693 783l-2 5h-529l31 156h766l-26 -134z"/>
<glyph glyph-name="braceleft" horiz-adv-x="660" unicode="{" d="M463 -364q-174 55 -223 155t-49 205q0 50 9 105l33 205q6 38 6 71q0 65 -30.5 115.5t-128.5 50.5l9 59l14 88q93 0 152 62.5t77 173.5l33 206q28 177 122.5 292.5t284.5 167.5l6 -2l19 -110q-105 -35 -161 -125t-77 -223l-33 -206q-18 -110 -70.5 -190t-141.5 -123 q72 -47 95.5 -112.5t23.5 -125.5q0 -33 -6 -69l-33 -205q-10 -62 -10 -114q0 -62 20.5 -129.5t116.5 -103.5z"/>
<glyph glyph-name="bar" horiz-adv-x="489" unicode="|" d="M209 -270h-155l276 1726h155z"/>
<glyph glyph-name="braceright" horiz-adv-x="660" unicode="}" d="M-83 -246q105 36 160.5 125.5t77.5 221.5l33 205q17 112 73 191.5t152 120.5q-80 43 -106 109t-26 128q0 34 6 71l33 206q9 60 9 110q0 65 -21 134t-115 104l59 117q173 -55 221.5 -155.5t48.5 -205.5q0 -49 -9 -104l-33 -206q-7 -40 -7 -73q0 -64 30.5 -113.5 t130.5 -49.5l-5 -33l-13 -82l-5 -32q-95 0 -154 -63.5t-76 -173.5l-33 -205q-29 -176 -123 -292t-282 -168l-6 2z"/>
<glyph glyph-name="asciitilde" horiz-adv-x="1302" unicode="~" d="M1229 740q-23 -142 -119 -240.5t-220 -98.5q-80 0 -145 33.5t-132 106.5q-47 48 -87.5 72t-86.5 24q-59 0 -112.5 -53.5t-64.5 -127.5l-134 18q22 141 117 235t220 94q78 0 145 -35.5t133 -103.5q46 -51 86.5 -74t87.5 -23q58 0 112.5 57.5t66.5 133.5z"/>
<glyph glyph-name="nonbreakingspace" horiz-adv-x="485" unicode=" "/>
<glyph glyph-name="exclamdown" horiz-adv-x="489" unicode="¡" d="M419 876h-190l41 206h190zM171 -374h-194l196 978h194z"/>
<glyph glyph-name="cent" horiz-adv-x="1054" unicode="¢" d="M509 133q86 0 164.5 61t92.5 148h174l2 -6q-18 -131 -131.5 -231t-259.5 -121l-46 -229h-194l48 242q-148 44 -200.5 164.5t-52.5 238.5q0 58 10 120l7 42q33 214 151 359t305 174l45 223h194l-46 -230q126 -34 183 -125t57 -187q0 -33 -6 -67h-182q4 26 4 50 q0 71 -44.5 129.5t-143.5 58.5q-136 0 -217 -113t-106 -272l-7 -42q-11 -68 -11 -126q0 -88 33 -174.5t177 -86.5z"/>
<glyph glyph-name="sterling" horiz-adv-x="1124" unicode="£" d="M448 615l-25 -149q-19 -95 -48 -175t-66 -137h680l-32 -154h-912l31 154h9q45 13 85 110.5t61 201.5l24 149h-147l31 155h142l44 270q43 217 168.5 327t304.5 110q176 0 252 -91t76 -196q0 -45 -11 -95l-2 -5h-188q9 45 9 80q0 65 -37.5 108.5t-129.5 43.5 q-83 0 -152.5 -75.5t-95.5 -206.5l-45 -270h384l-31 -155h-379z"/>
<glyph glyph-name="currency" horiz-adv-x="1361" unicode="¤" d="M349 608q-14 -66 -14 -125q0 -117 69 -222.5t229 -105.5q144 0 285.5 134t178.5 319q13 64 13 120q0 118 -69 224t-227 106q-146 0 -287.5 -133.5t-177.5 -316.5zM960 100q-82 -59 -174.5 -89.5t-187.5 -30.5q-87 0 -164.5 33t-136.5 96l-150 -135l-109 138l162 145 q-33 76 -38 133.5t-5 83.5q0 65 14 134q21 107 65 201t107 172l-102 144l164 139l98 -138q79 52 167 80t179 28q83 0 158 -31.5t135 -87.5l167 150l109 -140l-174 -158q34 -77 40 -137.5t6 -90.5q0 -64 -13 -131q-21 -104 -62 -194t-99 -164l99 -138l-164 -139z"/>
<glyph glyph-name="yen" horiz-adv-x="1169" unicode="¥" d="M654 807l456 649h220l-530 -718h285l-32 -155h-351l-26 -135h351l-32 -155h-351l-58 -293h-193l58 293h-344l32 155h344l26 135h-344l32 155h285l-245 718h221z"/>
<glyph glyph-name="brokenbar" horiz-adv-x="481" unicode="¦" d="M386 698h-193l151 758h193zM-1 -270l158 792h193l-158 -792h-193z"/>
<glyph glyph-name="section" horiz-adv-x="1183" unicode="§" d="M620 689q-42 12 -77 24t-66 26q-67 -21 -111 -70t-56 -116q-7 -32 -7 -59q0 -61 42.5 -101.5t225.5 -101.5q41 -13 74.5 -25.5t63.5 -24.5q68 21 115 71t61 116q5 24 5 45q0 63 -47.5 107.5t-222.5 108.5zM1077 431q-20 -100 -77 -169t-145 -108q53 -50 66.5 -100 t13.5 -90q0 -42 -10 -92q-37 -183 -177 -275t-356 -92q-196 0 -304.5 90t-108.5 226q0 51 13 110l2 5l187 2q-10 -47 -10 -85q0 -88 62.5 -140.5t189.5 -52.5q115 0 202 60.5t106 149.5q5 25 5 46q0 62 -47.5 103.5t-226.5 105.5q-210 63 -283.5 142.5t-73.5 186.5 q0 45 11 97q19 97 75.5 166.5t144.5 109.5q-52 50 -65 100t-13 88q0 43 11 95q35 176 177.5 271.5t356.5 95.5q204 0 294.5 -97t90.5 -220q0 -51 -13 -109l-2 -5h-186q8 39 8 73q0 76 -47 139.5t-176 63.5q-123 0 -207.5 -61t-101.5 -149q-6 -31 -6 -57q0 -62 43 -101 t229 -98q213 -68 285.5 -145.5t72.5 -184.5q0 -44 -10 -95z"/>
<glyph glyph-name="dieresis" horiz-adv-x="968" unicode="¨" d="M505 1256h-210l32 200h210zM942 1256h-210l32 200h210z"/>
<glyph glyph-name="copyright" horiz-adv-x="1497" unicode="©" d="M131 729q52 327 276.5 537t503.5 210q263 0 407 -193t144 -415q0 -67 -11 -139q-53 -328 -277.5 -539t-501.5 -211q-265 0 -409 192.5t-144 414.5q0 69 12 143zM248 729q-12 -71 -12 -136q0 -186 112.5 -339.5t342.5 -153.5q217 0 409 183t235 446q11 69 11 131 q0 187 -112.5 340.5t-341.5 153.5q-218 0 -410.5 -182.5t-233.5 -442.5zM1061 596l2 -6q-21 -156 -114 -232t-243 -76q-144 0 -207.5 92.5t-63.5 204.5q0 43 8 90l19 119q28 179 132 283t255 104q142 0 204.5 -69t62.5 -164q0 -35 -7 -75l-2 -5h-143q5 31 5 56 q0 56 -28.5 91t-112.5 35q-82 0 -141 -71.5t-77 -183.5l-19 -120q-7 -44 -7 -82q0 -65 28.5 -120t114.5 -55q80 0 128.5 43.5t64.5 140.5h141z"/>
<glyph glyph-name="ordfeminine" horiz-adv-x="864" unicode="ª" d="M469 831q41 0 97 29.5t81 64.5l23 111h-123q-62 0 -108 -33.5t-55 -78.5q-3 -16 -3 -29q0 -27 17 -45.5t71 -18.5zM626 706q-3 21 -3 45.5t3 50.5q-41 -48 -98.5 -79t-128.5 -31q-103 0 -147 53.5t-44 118.5q0 26 6 56q23 117 112 173.5t243 56.5h123l11 52q6 28 6 50 q0 30 -15.5 55.5t-67.5 25.5q-55 0 -95 -27.5t-49 -75.5l-155 13l-2 6q16 104 106 166t223 62q118 0 171.5 -61.5t53.5 -142.5q0 -34 -8 -72l-63 -314q-11 -52 -12.5 -81t-1.5 -46q0 -27 2 -54h-170z"/>
<glyph glyph-name="guillemotleft" horiz-adv-x="913" unicode="«" d="M294 550l155 -398h-143l-197 389l1 6l3 13l353 389h143zM607 550l155 -398h-143l-197 389l1 6l3 13l353 389h143z"/>
<glyph glyph-name="logicalnot" horiz-adv-x="1070" unicode="¬" d="M963 726l-70 -351h-194l52 262h-586l33 165h780z"/>
<glyph glyph-name="uni00AD" horiz-adv-x="529" unicode="­" d="M516 538h-457l30 154h457z"/>
<glyph glyph-name="registered" horiz-adv-x="1497" unicode="®" d="M669 784h136q60 1 105.5 32.5t55.5 87.5q3 20 3 37q0 47 -26.5 71t-115.5 24h-118zM648 654l-54 -338h-146l136 850h264q136 0 201.5 -59t65.5 -147q0 -24 -4 -51q-11 -64 -49 -110.5t-103 -77.5q57 -27 73.5 -70.5t16.5 -86.5q0 -23 -4 -49l-9 -56q-7 -42 -8.5 -74 t4.5 -53l-2 -16h-149q-5 22 -0.5 63.5t11.5 80.5l8 54q4 24 4 44q0 41 -21 68.5t-91 27.5h-144zM249 729q-12 -72 -12 -136q0 -185 112 -339t342 -154q217 0 408.5 183t234.5 446q11 69 11 131q0 187 -112.5 340.5t-340.5 153.5q-219 0 -410.5 -182t-232.5 -443zM132 729 q52 327 276.5 537t502.5 210q264 0 408 -193t144 -415q0 -67 -11 -139q-53 -328 -278 -539t-502 -211q-265 0 -408.5 192.5t-143.5 413.5q0 69 12 144z"/>
<glyph glyph-name="degree" horiz-adv-x="718" unicode="°" d="M407 1216q-4 -18 -4 -34q0 -35 22 -64t71 -29q43 0 83.5 36.5t51.5 90.5q3 18 3 34q0 35 -20.5 65.5t-66.5 30.5q-45 0 -87.5 -38t-52.5 -92zM280 1216q22 113 107 187t186 74q90 0 139.5 -68t49.5 -139q0 -26 -6 -54q-23 -115 -105 -186t-181 -71q-93 0 -144.5 65.5 t-51.5 136.5q0 26 6 55z"/>
<glyph glyph-name="plusminus" horiz-adv-x="1032" unicode="±" d="M845 5h-776l31 155h776zM689 856h329l-25 -154h-329l-66 -413h-173l66 413h-350l25 154h350l66 411h173z"/>
<glyph glyph-name="twosuperior" horiz-adv-x="822" unicode="²" d="M720 667h-553l26 130l331 262q75 59 102.5 96.5t36.5 80.5q4 19 4 34q0 29 -12 49q-18 30 -72 29q-56 0 -97.5 -32.5t-50.5 -81.5h-156l-2 6q15 105 106 172t226 67q120 0 182 -65q46 -48 46 -123q0 -26 -6 -56q-18 -86 -66.5 -137t-185.5 -160l-162 -135l2 -6h327z"/>
<glyph glyph-name="threesuperior" horiz-adv-x="828" unicode="³" d="M419 1137h124q55 0 92 29.5t47 79.5q2 12 2 22q0 32 -20 52q-27 28 -89 27q-46 0 -83 -24.5t-44 -63.5h-159l-2 6q15 101 104 157t210 56q128 0 199 -60q55 -47 55 -122q0 -22 -5 -47q-12 -60 -54 -105t-105 -69q58 -25 84 -73q18 -33 19 -73q0 -19 -4 -39 q-24 -119 -118.5 -177t-234.5 -58q-112 1 -189 59q-57 43 -57 114q0 25 7 54l2 6h160q-3 -13 -3 -25q0 -32 20 -51q28 -27 86 -27q60 0 106 30t55 77q4 22 4 39q1 35 -17 53q-26 26 -93 27h-124l17 87z"/>
<glyph glyph-name="acute" horiz-adv-x="628" unicode="´" d="M464 1478h224l2 -6l-295 -260h-142z"/>
<glyph glyph-name="mu" d="M469 1082l-125 -623l1 1q-22 -109 -22 -177q1 -59 17 -88q36 -62 132 -62q83 0 146 38t108 109l160 802h193l-216 -1082h-174l12 95q-51 -58 -114.5 -87t-138.5 -29q-62 0 -108.5 16.5t-77.5 53.5l-92 -465h-192l299 1498h192z" unicode="µ"/>
<glyph glyph-name="paragraph" horiz-adv-x="950" unicode="¶" d="M509 0l104 520h-75q-203 0 -289.5 113t-86.5 243q0 53 12 112q43 220 187 344t364 124h268l-291 -1456h-193z"/>
<glyph glyph-name="periodcentered" horiz-adv-x="517" unicode="·" d="M384 624h-190l42 212h190z"/>
<glyph glyph-name="cedilla" horiz-adv-x="485" unicode="¸" d="M198 0l-22 -52q56 -11 86 -52q20 -27 21 -72q0 -22 -5 -49q-20 -102 -102 -155q-79 -51 -207 -51h-10l-5 3l14 102q61 0 106 24.5t55 73.5q3 14 3 25q0 31 -20 43q-28 18 -108 25l57 135h137z"/>
<glyph glyph-name="onesuperior" horiz-adv-x="534" unicode="¹" d="M428 665h-170l131 655h-116l27 134l290 23z"/>
<glyph glyph-name="ordmasculine" horiz-adv-x="879" unicode="º" d="M404 1025q-8 -36 -8 -66q0 -46 23.5 -86.5t101.5 -40.5q69 0 123 54t71 139l23 117q7 34 7 62q0 46 -24 87.5t-101 41.5q-70 0 -123.5 -54.5t-69.5 -136.5zM258 1142q31 157 136 246t254 89q139 0 202.5 -81.5t63.5 -175.5q0 -37 -8 -78l-23 -117q-32 -158 -135.5 -246 t-254.5 -88q-138 0 -202 81.5t-64 175.5q0 37 8 77z"/>
<glyph glyph-name="guillemotright" horiz-adv-x="913" unicode="»" d="M354 949l196 -389l-2 -6h1l-3 -13l-352 -389h-143l314 398l-154 399h143zM679 949l196 -389l-2 -6h1l-3 -13l-352 -389h-143l314 398l-154 399h143z"/>
<glyph glyph-name="onequarter" horiz-adv-x="1498" unicode="¼" d="M512 664h-170l131 655h-116l27 134l290 23zM365 118l-93 67l890 1138l93 -67zM889 287l2 -5h211l61 305l-5 2l-14 -18zM1268 282h114l-26 -130h-114l-30 -152h-166l30 152h-386l13 102l501 547h168z"/>
<glyph glyph-name="onehalf" horiz-adv-x="1617" unicode="½" d="M378 118l-93 67l890 1138l93 -67zM512 664h-170l131 655h-116l27 134l290 23zM1342 0h-553l26 130l331 262q75 59 102.5 96.5t36.5 80.5q4 19 4 34q0 29 -12 49q-18 30 -72 29q-56 0 -97.5 -32.5t-50.5 -81.5h-156l-2 6q15 105 106 172t226 67q120 0 182 -65 q46 -48 46 -123q0 -26 -6 -56q-18 -86 -66.5 -137t-185.5 -160l-162 -135l2 -6h327z"/>
<glyph glyph-name="threequarters" horiz-adv-x="1675" unicode="¾" d="M534 118l-93 67l890 1138l93 -67zM1062 287l2 -5h211l61 305l-5 2l-14 -18zM1441 282h114l-26 -130h-114l-30 -152h-166l30 152h-386l13 102l501 547h168zM433 1138h124q55 0 92 29.5t47 79.5q2 12 2 22q0 32 -20 52q-27 28 -89 27q-46 0 -83 -24.5t-44 -63.5h-159l-2 6 q15 101 104 157t210 56q128 0 199 -60q55 -47 55 -122q0 -22 -5 -47q-12 -60 -54 -105t-105 -69q58 -25 84 -73q18 -33 19 -73q0 -19 -4 -39q-24 -119 -118.5 -177t-234.5 -58q-112 1 -189 59q-57 43 -57 114q0 25 7 54l2 6h160q-3 -13 -3 -25q0 -32 20 -51q28 -27 86 -27 q60 0 106 30t55 77q4 22 4 39q1 35 -17 53q-26 26 -93 27h-124l17 87z"/>
<glyph glyph-name="questiondown" horiz-adv-x="959" unicode="¿" d="M548 1083h200l-42 -209h-200zM663 672q-31 -146 -64.5 -201.5t-146.5 -147.5q-124 -129 -170.5 -186.5t-63.5 -144.5q-8 -42 -8 -75q0 -58 32 -101.5t129 -43.5q76 0 147 50.5t90 144.5h184l2 -6q-31 -161 -159.5 -258t-296.5 -97q-174 0 -249 87.5t-75 198.5q0 44 10 95 q27 136 107 232t223 222q59 53 78.5 96.5t37.5 134.5h193z"/>
<glyph glyph-name="Agrave" horiz-adv-x="1270" unicode="À" d="M437 540h445l-88 647l-6 2zM905 375h-558l-203 -375h-196l816 1456h164l225 -1456h-197zM982 1560h-153l-196 266h231z"/>
<glyph glyph-name="Aacute" horiz-adv-x="1270" unicode="Á" d="M437 540h445l-88 647l-6 2zM905 375h-558l-203 -375h-196l816 1456h164l225 -1456h-197zM1028 1823h224l2 -6l-295 -260h-142z"/>
<glyph glyph-name="Acircumflex" horiz-adv-x="1270" unicode="Â" d="M437 540h445l-88 647l-6 2zM905 375h-558l-203 -375h-196l816 1456h164l225 -1456h-197zM1203 1626l-5 -25h-156l-104 148l-163 -148h-156l6 26l279 237h114z"/>
<glyph glyph-name="Atilde" horiz-adv-x="1270" unicode="Ã" d="M437 540h445l-88 647l-6 2zM905 375h-558l-203 -375h-196l816 1456h164l225 -1456h-197zM1275 1844q-16 -97 -82 -160.5t-151 -63.5q-62 0 -127.5 46.5t-113.5 46.5q-37 0 -70 -33t-40 -78l-100 26q15 96 80.5 163t152.5 67q48 0 120 -47t121 -47q36 0 69.5 32.5 t41.5 79.5z"/>
<glyph glyph-name="Adieresis" horiz-adv-x="1270" unicode="Ä" d="M437 540h445l-88 647l-6 2zM905 375h-558l-203 -375h-196l816 1456h164l225 -1456h-197zM796 1605h-210l32 200h210zM1233 1605h-210l32 200h210z"/>
<glyph glyph-name="Aring" horiz-adv-x="1270" unicode="Å" d="M437 540h445l-88 647l-6 2zM905 375h-558l-203 -375h-196l816 1456h164l225 -1456h-197zM836 1734q-3 -14 -3 -26q1 -29 17 -49q24 -29 64 -29q37 0 73 30t45 74q3 14 3 26q0 30 -16 52q-22 30 -63 29q-38 0 -75 -31.5t-45 -75.5zM737 1734q18 90 85 144t152 54 q76 0 124 -58q36 -43 37 -100q0 -19 -4 -40q-19 -92 -85 -143t-150 -51q-78 0 -128 55q-36 40 -36 96q0 21 5 43z"/>
<glyph glyph-name="AE" horiz-adv-x="1805" unicode="Æ" d="M928 529l112 696l-6 3l-514 -699h408zM1685 0h-842l56 350h-510l-257 -350h-236l1110 1456h913l-31 -155h-643l-75 -466h549l-31 -155h-543l-85 -526h656z"/>
<glyph glyph-name="Ccedilla" horiz-adv-x="1214" unicode="Ç" d="M1134 447l2 -6q-61 -214 -197 -338t-356 -124q-219 -1 -353 183q-96 131 -96 303q0 68 15 142l52 260q57 289 215.5 449.5t390.5 160.5q215 1 340 -137q103 -113 103 -280q0 -36 -5 -74l-2 -5h-187q1 21 1 40q0 129 -58 209q-67 92 -214 92q-138 0 -244.5 -128.5 t-145.5 -324.5l-53 -262q-15 -75 -15 -141q-1 -116 47 -200q74 -132 230 -133q134 0 212.5 76t132.5 238h185zM624 -8l-22 -52q56 -11 86 -52q20 -27 21 -72q0 -22 -5 -49q-20 -102 -102 -155q-79 -51 -207 -51h-10l-5 3l14 102q61 0 106 24.5t55 73.5q3 14 3 25 q0 31 -20 43q-28 18 -108 25l57 135h137z"/>
<glyph glyph-name="Egrave" horiz-adv-x="1125" unicode="È" d="M1030 675h-616l-104 -521h711l-31 -154h-904l291 1456h893l-31 -155h-700l-94 -471h616zM898 1560h-153l-196 266h231z"/>
<glyph glyph-name="Eacute" horiz-adv-x="1125" unicode="É" d="M1030 675h-616l-104 -521h711l-31 -154h-904l291 1456h893l-31 -155h-700l-94 -471h616zM944 1823h224l2 -6l-295 -260h-142z"/>
<glyph glyph-name="Ecircumflex" horiz-adv-x="1125" unicode="Ê" d="M1030 675h-616l-104 -521h711l-31 -154h-904l291 1456h893l-31 -155h-700l-94 -471h616zM1119 1626l-5 -25h-156l-104 148l-163 -148h-156l6 26l279 237h114z"/>
<glyph glyph-name="Edieresis" horiz-adv-x="1125" unicode="Ë" d="M1030 675h-616l-104 -521h711l-31 -154h-904l291 1456h893l-31 -155h-700l-94 -471h616zM712 1605h-210l32 200h210zM1149 1605h-210l32 200h210z"/>
<glyph glyph-name="Igrave" horiz-adv-x="552" unicode="Ì" d="M287 0h-194l291 1456h194zM585 1560h-153l-196 266h231z"/>
<glyph glyph-name="Iacute" horiz-adv-x="552" unicode="Í" d="M287 0h-194l291 1456h194zM629 1823h224l2 -6l-295 -260h-142z"/>
<glyph glyph-name="Icircumflex" horiz-adv-x="552" unicode="Î" d="M287 0h-194l291 1456h194zM806 1626l-5 -25h-156l-104 148l-163 -148h-156l6 26l279 237h114z"/>
<glyph glyph-name="Idieresis" horiz-adv-x="552" unicode="Ï" d="M287 0h-194l291 1456h194zM399 1605h-210l32 200h210zM836 1605h-210l32 200h210z"/>
<glyph glyph-name="Eth" horiz-adv-x="1295" unicode="Ð" d="M690 663h-249l-101 -509h263q171 0 291 128.5t162 336.5l40 201q13 67 13 127q0 130 -79 242t-272 112h-189l-97 -483h249zM789 1456q254 0 383.5 -160t129.5 -342q0 -66 -14 -137l-39 -198q-61 -301 -234 -460t-443 -159h-456l132 663h-158l31 155h158l128 638h382z"/>
<glyph glyph-name="Ntilde" horiz-adv-x="1370" unicode="Ñ" d="M1114 0h-194l-413 1112l-6 -1l-222 -1111h-193l291 1456h193l413 -1110l6 1l222 1109h194zM1283 1844q-16 -97 -82 -160.5t-151 -63.5q-62 0 -127.5 46.5t-113.5 46.5q-37 0 -70 -33t-40 -78l-100 26q15 96 80.5 163t152.5 67q48 0 120 -47t121 -47q36 0 69.5 32.5 t41.5 79.5z"/>
<glyph glyph-name="Ograve" horiz-adv-x="1311" unicode="Ò" d="M1093 850q14 70 14 130q-1 122 -57 208q-84 128 -255 127q-144 0 -254.5 -124t-149.5 -322l-53 -262q-15 -75 -15 -139q0 -118 51 -200q79 -128 241 -128q154 0 269.5 123.5t156.5 324.5zM1234 588q-58 -287 -230.5 -448t-420.5 -161q-224 0 -357 184q-96 132 -96 304 q0 67 15 140l52 260q57 286 223.5 448t406.5 162q232 0 371 -185q102 -135 102 -310q0 -64 -14 -134zM969 1581h-153l-196 266h231z"/>
<glyph glyph-name="Oacute" horiz-adv-x="1311" unicode="Ó" d="M1093 850q14 70 14 130q-1 122 -57 208q-84 128 -255 127q-144 0 -254.5 -124t-149.5 -322l-53 -262q-15 -75 -15 -139q0 -118 51 -200q79 -128 241 -128q154 0 269.5 123.5t156.5 324.5zM1234 588q-58 -287 -230.5 -448t-420.5 -161q-224 0 -357 184q-96 132 -96 304 q0 67 15 140l52 260q57 286 223.5 448t406.5 162q232 0 371 -185q102 -135 102 -310q0 -64 -14 -134zM1015 1844h224l2 -6l-295 -260h-142z"/>
<glyph glyph-name="Ocircumflex" horiz-adv-x="1311" unicode="Ô" d="M1093 850q14 70 14 130q-1 122 -57 208q-84 128 -255 127q-144 0 -254.5 -124t-149.5 -322l-53 -262q-15 -75 -15 -139q0 -118 51 -200q79 -128 241 -128q154 0 269.5 123.5t156.5 324.5zM1234 588q-58 -287 -230.5 -448t-420.5 -161q-224 0 -357 184q-96 132 -96 304 q0 67 15 140l52 260q57 286 223.5 448t406.5 162q232 0 371 -185q102 -135 102 -310q0 -64 -14 -134zM1190 1647l-5 -25h-156l-104 148l-163 -148h-156l6 26l279 237h114z"/>
<glyph glyph-name="Otilde" horiz-adv-x="1311" unicode="Õ" d="M1093 850q14 70 14 130q-1 122 -57 208q-84 128 -255 127q-144 0 -254.5 -124t-149.5 -322l-53 -262q-15 -75 -15 -139q0 -118 51 -200q79 -128 241 -128q154 0 269.5 123.5t156.5 324.5zM1234 588q-58 -287 -230.5 -448t-420.5 -161q-224 0 -357 184q-96 132 -96 304 q0 67 15 140l52 260q57 286 223.5 448t406.5 162q232 0 371 -185q102 -135 102 -310q0 -64 -14 -134zM1262 1865q-16 -97 -82 -160.5t-151 -63.5q-62 0 -127.5 46.5t-113.5 46.5q-37 0 -70 -33t-40 -78l-100 26q15 96 80.5 163t152.5 67q48 0 120 -47t121 -47 q36 0 69.5 32.5t41.5 79.5z"/>
<glyph glyph-name="Odieresis" horiz-adv-x="1311" unicode="Ö" d="M1093 850q14 70 14 130q-1 122 -57 208q-84 128 -255 127q-144 0 -254.5 -124t-149.5 -322l-53 -262q-15 -75 -15 -139q0 -118 51 -200q79 -128 241 -128q154 0 269.5 123.5t156.5 324.5zM1234 588q-58 -287 -230.5 -448t-420.5 -161q-224 0 -357 184q-96 132 -96 304 q0 67 15 140l52 260q57 286 223.5 448t406.5 162q232 0 371 -185q102 -135 102 -310q0 -64 -14 -134zM783 1626h-210l32 200h210zM1220 1626h-210l32 200h210z"/>
<glyph glyph-name="multiply" horiz-adv-x="1032" unicode="×" d="M71 351l371 333l-239 335l149 126l235 -331l368 331l98 -126l-373 -335l237 -333l-148 -126l-234 328l-366 -328z"/>
<glyph glyph-name="Oslash" horiz-adv-x="1311" unicode="Ø" d="M1095 859q15 75 15 140q0 69 -16 118l-6 1l-684 -912q33 -33 79 -49.5t104 -16.5q156 0 286 130t170 328zM337 598q-18 -84 -18 -153q0 -74 20 -124l6 -1l687 916q-38 38 -91 58.5t-119 20.5q-145 0 -270 -130.5t-163 -325.5zM1236 598q-58 -284 -244 -451.5t-437 -167.5 q-75 0 -140 22t-117 64l-119 -159h-144l183 244q-61 85 -75.5 167t-14.5 133q0 71 16 148l51 259q57 284 237 452t422 168q82 0 154.5 -26t129.5 -73l105 139h144l-170 -227q57 -85 70.5 -165t13.5 -130q0 -67 -14 -138z"/>
<glyph glyph-name="Ugrave" horiz-adv-x="1300" unicode="Ù" d="M1372 1456l-197 -987q-51 -254 -216.5 -372t-404.5 -118q-210 1 -332 129q-87 92 -88 237q0 58 14 124l197 987h193l-197 -987q-12 -61 -12 -110q0 -93 44 -146q68 -80 212 -80q140 0 252 86.5t145 249.5l197 987h193zM961 1560h-153l-196 266h231z"/>
<glyph glyph-name="Uacute" horiz-adv-x="1300" unicode="Ú" d="M1372 1456l-197 -987q-51 -254 -216.5 -372t-404.5 -118q-210 1 -332 129q-87 92 -88 237q0 58 14 124l197 987h193l-197 -987q-12 -61 -12 -110q0 -93 44 -146q68 -80 212 -80q140 0 252 86.5t145 249.5l197 987h193zM1007 1823h224l2 -6l-295 -260h-142z"/>
<glyph glyph-name="Ucircumflex" horiz-adv-x="1300" unicode="Û" d="M1372 1456l-197 -987q-51 -254 -216.5 -372t-404.5 -118q-210 1 -332 129q-87 92 -88 237q0 58 14 124l197 987h193l-197 -987q-12 -61 -12 -110q0 -93 44 -146q68 -80 212 -80q140 0 252 86.5t145 249.5l197 987h193zM1182 1626l-5 -25h-156l-104 148l-163 -148h-156 l6 26l279 237h114z"/>
<glyph glyph-name="Udieresis" horiz-adv-x="1300" unicode="Ü" d="M1372 1456l-197 -987q-51 -254 -216.5 -372t-404.5 -118q-210 1 -332 129q-87 92 -88 237q0 58 14 124l197 987h193l-197 -987q-12 -61 -12 -110q0 -93 44 -146q68 -80 212 -80q140 0 252 86.5t145 249.5l197 987h193zM775 1605h-210l32 200h210zM1212 1605h-210l32 200 h210z"/>
<glyph glyph-name="Yacute" horiz-adv-x="1194" unicode="Ý" d="M656 739l6 -1l486 718h219l-660 -943l-103 -513h-192l105 526l-279 930h220zM951 1822h224l2 -6l-295 -260h-142z"/>
<glyph glyph-name="Thorn" horiz-adv-x="1134" unicode="Þ" d="M464 1012l-109 -545h243q124 0 211.5 80t109.5 189q8 39 8 73q0 72 -42.5 136t-177.5 64h-241zM553 1456l-59 -293h244q203 0 294 -105t91 -230q0 -43 -9 -90q-41 -202 -183 -313.5t-363 -111.5h-244l-62 -313h-193l291 1456h193z"/>
<glyph glyph-name="germandbls" horiz-adv-x="1148" unicode="ß" d="M238 0h-192l216 1082q47 237 179.5 355t309.5 118q143 0 213 -75t70 -176q0 -41 -9 -88q-26 -129 -107 -234.5t-92 -160.5q-2 -11 -2 -23q0 -85 113 -203t113 -232q0 -23 -5 -47q-36 -178 -146 -257.5t-283 -79.5q-72 0 -153 21t-109 50l74 159q34 -29 89 -52.5 t111 -23.5q91 0 148 48t73 125q2 11 2 23q0 88 -112 206t-112 235q0 27 6 53q17 89 105.5 196t103.5 181q7 36 7 66q0 53 -29 94t-91 41q-90 0 -167.5 -84.5t-107.5 -234.5z"/>
<glyph glyph-name="agrave" horiz-adv-x="1060" unicode="à" d="M411 144q81 0 165 47t130 111l40 199h-191q-99 0 -178 -61t-94 -140q-5 -26 -5 -48q0 -42 20 -68q31 -40 113 -40zM667 0q0 49 2 80.5t7 64.5q-67 -71 -153.5 -118.5t-173.5 -47.5q-149 1 -219 89q-49 61 -48 151q0 40 9 85q32 165 162.5 247.5t334.5 82.5h185l21 107 q6 33 6 60q0 57 -28 93q-42 52 -140 53q-84 0 -152 -49.5t-81 -115.5h-183l-2 6q20 125 150 219.5t310 94.5q160 0 254 -96q69 -70 69 -181q0 -40 -9 -86l-104 -521q-13 -61 -18 -113q-2 -26 -2 -52.5t2 -52.5h-199zM767 1238h-153l-196 266h231z"/>
<glyph glyph-name="aacute" horiz-adv-x="1060" unicode="á" d="M411 144q81 0 165 47t130 111l40 199h-191q-99 0 -178 -61t-94 -140q-5 -26 -5 -48q0 -42 20 -68q31 -40 113 -40zM667 0q0 49 2 80.5t7 64.5q-67 -71 -153.5 -118.5t-173.5 -47.5q-149 1 -219 89q-49 61 -48 151q0 40 9 85q32 165 162.5 247.5t334.5 82.5h185l21 107 q6 33 6 60q0 57 -28 93q-42 52 -140 53q-84 0 -152 -49.5t-81 -115.5h-183l-2 6q20 125 150 219.5t310 94.5q160 0 254 -96q69 -70 69 -181q0 -40 -9 -86l-104 -521q-13 -61 -18 -113q-2 -26 -2 -52.5t2 -52.5h-199zM813 1501h224l2 -6l-295 -260h-142z"/>
<glyph glyph-name="acircumflex" horiz-adv-x="1060" unicode="â" d="M411 144q81 0 165 47t130 111l40 199h-191q-99 0 -178 -61t-94 -140q-5 -26 -5 -48q0 -42 20 -68q31 -40 113 -40zM667 0q0 49 2 80.5t7 64.5q-67 -71 -153.5 -118.5t-173.5 -47.5q-149 1 -219 89q-49 61 -48 151q0 40 9 85q32 165 162.5 247.5t334.5 82.5h185l21 107 q6 33 6 60q0 57 -28 93q-42 52 -140 53q-84 0 -152 -49.5t-81 -115.5h-183l-2 6q20 125 150 219.5t310 94.5q160 0 254 -96q69 -70 69 -181q0 -40 -9 -86l-104 -521q-13 -61 -18 -113q-2 -26 -2 -52.5t2 -52.5h-199zM988 1304l-5 -25h-156l-104 148l-163 -148h-156l6 26 l279 237h114z"/>
<glyph glyph-name="atilde" horiz-adv-x="1060" unicode="ã" d="M411 144q81 0 165 47t130 111l40 199h-191q-99 0 -178 -61t-94 -140q-5 -26 -5 -48q0 -42 20 -68q31 -40 113 -40zM667 0q0 49 2 80.5t7 64.5q-67 -71 -153.5 -118.5t-173.5 -47.5q-149 1 -219 89q-49 61 -48 151q0 40 9 85q32 165 162.5 247.5t334.5 82.5h185l21 107 q6 33 6 60q0 57 -28 93q-42 52 -140 53q-84 0 -152 -49.5t-81 -115.5h-183l-2 6q20 125 150 219.5t310 94.5q160 0 254 -96q69 -70 69 -181q0 -40 -9 -86l-104 -521q-13 -61 -18 -113q-2 -26 -2 -52.5t2 -52.5h-199zM1060 1522q-16 -97 -82 -160.5t-151 -63.5 q-62 0 -127.5 46.5t-113.5 46.5q-37 0 -70 -33t-40 -78l-100 26q15 96 80.5 163t152.5 67q48 0 120 -47t121 -47q36 0 69.5 32.5t41.5 79.5z"/>
<glyph glyph-name="adieresis" horiz-adv-x="1060" unicode="ä" d="M411 144q81 0 165 47t130 111l40 199h-191q-99 0 -178 -61t-94 -140q-5 -26 -5 -48q0 -42 20 -68q31 -40 113 -40zM667 0q0 49 2 80.5t7 64.5q-67 -71 -153.5 -118.5t-173.5 -47.5q-149 1 -219 89q-49 61 -48 151q0 40 9 85q32 165 162.5 247.5t334.5 82.5h185l21 107 q6 33 6 60q0 57 -28 93q-42 52 -140 53q-84 0 -152 -49.5t-81 -115.5h-183l-2 6q20 125 150 219.5t310 94.5q160 0 254 -96q69 -70 69 -181q0 -40 -9 -86l-104 -521q-13 -61 -18 -113q-2 -26 -2 -52.5t2 -52.5h-199zM581 1283h-210l32 200h210zM1018 1283h-210l32 200h210z "/>
<glyph glyph-name="aring" horiz-adv-x="1060" unicode="å" d="M411 144q81 0 165 47t130 111l40 199h-191q-99 0 -178 -61t-94 -140q-5 -26 -5 -48q0 -42 20 -68q31 -40 113 -40zM667 0q0 49 2 80.5t7 64.5q-67 -71 -153.5 -118.5t-173.5 -47.5q-149 1 -219 89q-49 61 -48 151q0 40 9 85q32 165 162.5 247.5t334.5 82.5h185l21 107 q6 33 6 60q0 57 -28 93q-42 52 -140 53q-84 0 -152 -49.5t-81 -115.5h-183l-2 6q20 125 150 219.5t310 94.5q160 0 254 -96q69 -70 69 -181q0 -40 -9 -86l-104 -521q-13 -61 -18 -113q-2 -26 -2 -52.5t2 -52.5h-199zM621 1412q-3 -14 -3 -26q1 -29 17 -49q24 -29 64 -29 q37 0 73 30t45 74q3 14 3 26q0 30 -16 52q-22 30 -63 29q-38 0 -75 -31.5t-45 -75.5zM522 1412q18 90 85 144t152 54q76 0 124 -58q36 -43 37 -100q0 -19 -4 -40q-19 -92 -85 -143t-150 -51q-78 0 -128 55q-36 40 -36 96q0 21 5 43z"/>
<glyph glyph-name="ae" horiz-adv-x="1618" unicode="æ" d="M1236 947q-95 0 -176.5 -85.5t-119.5 -215.5l3 -6h456l6 31q11 52 11 96q0 63 -30.5 121.5t-149.5 58.5zM368 133q64 0 150 44t138 100l43 216h-207q-100 0 -176 -57.5t-91 -135.5q-5 -25 -5 -46q0 -47 29.5 -84t118.5 -37zM1089 -21q-118 0 -205.5 49.5t-134.5 140.5 q-68 -80 -184 -135t-267 -55q-148 0 -211.5 76t-63.5 169q0 38 9 80q33 168 154.5 249.5t331.5 81.5h209l17 85q9 44 9 80q0 55 -27.5 101t-116.5 46q-86 0 -154.5 -55.5t-83.5 -132.5l-179 18l-2 6q24 147 146 233t304 86q96 0 169 -38.5t109 -111.5q73 73 163 111.5 t186 38.5q188 0 261.5 -110.5t73.5 -238.5q0 -64 -15 -139l-24 -119h-661q-11 -63 -11 -115q0 -91 42.5 -169t186.5 -78q89 0 162 29.5t150 76.5l37 -138q-55 -43 -152 -82.5t-228 -39.5z"/>
<glyph glyph-name="ccedilla" horiz-adv-x="1024" unicode="ç" d="M501 133q86 0 164.5 61t92.5 148h173l2 -6q-20 -146 -156 -251.5t-300 -105.5q-212 0 -309 156q-70 113 -70 264q0 58 10 121l7 42q37 239 177.5 389.5t363.5 150.5q172 0 270 -112q75 -86 74 -202q0 -36 -7 -74l-2 -5h-175q4 26 4 50q0 71 -38 121q-51 67 -150 67 q-136 0 -217 -113t-106 -272l-7 -42q-11 -68 -11 -126q0 -88 25 -154q41 -108 185 -107zM507 -8l-22 -52q56 -11 86 -52q20 -27 21 -72q0 -22 -5 -49q-20 -102 -102 -155q-79 -51 -207 -51h-10l-5 3l14 102q61 0 106 24.5t55 73.5q3 14 3 25q0 31 -20 43q-28 18 -108 25 l57 135h137z"/>
<glyph glyph-name="egrave" horiz-adv-x="1021" unicode="è" d="M611 947q-84 0 -162.5 -84t-112.5 -208l3 -6h445l4 26q6 38 6 71q0 74 -29 126q-42 76 -154 75zM486 -21q-204 -1 -308 151q-77 111 -77 269q0 57 10 121l7 44q38 240 189.5 389t327.5 149q199 0 285 -133q62 -95 62 -234q0 -55 -10 -117l-20 -123h-652q-6 -49 -6 -92 q0 -103 36 -172q52 -98 180 -98q88 0 165 29.5t134 77.5l55 -128q-61 -57 -156 -95t-222 -38zM731 1239h-153l-196 266h231z"/>
<glyph glyph-name="eacute" horiz-adv-x="1021" unicode="é" d="M611 947q-84 0 -162.5 -84t-112.5 -208l3 -6h445l4 26q6 38 6 71q0 74 -29 126q-42 76 -154 75zM486 -21q-204 -1 -308 151q-77 111 -77 269q0 57 10 121l7 44q38 240 189.5 389t327.5 149q199 0 285 -133q62 -95 62 -234q0 -55 -10 -117l-20 -123h-652q-6 -49 -6 -92 q0 -103 36 -172q52 -98 180 -98q88 0 165 29.5t134 77.5l55 -128q-61 -57 -156 -95t-222 -38zM777 1502h224l2 -6l-295 -260h-142z"/>
<glyph glyph-name="ecircumflex" horiz-adv-x="1021" unicode="ê" d="M611 947q-84 0 -162.5 -84t-112.5 -208l3 -6h445l4 26q6 38 6 71q0 74 -29 126q-42 76 -154 75zM486 -21q-204 -1 -308 151q-77 111 -77 269q0 57 10 121l7 44q38 240 189.5 389t327.5 149q199 0 285 -133q62 -95 62 -234q0 -55 -10 -117l-20 -123h-652q-6 -49 -6 -92 q0 -103 36 -172q52 -98 180 -98q88 0 165 29.5t134 77.5l55 -128q-61 -57 -156 -95t-222 -38zM952 1305l-5 -25h-156l-104 148l-163 -148h-156l6 26l279 237h114z"/>
<glyph glyph-name="edieresis" horiz-adv-x="1021" unicode="ë" d="M611 947q-84 0 -162.5 -84t-112.5 -208l3 -6h445l4 26q6 38 6 71q0 74 -29 126q-42 76 -154 75zM486 -21q-204 -1 -308 151q-77 111 -77 269q0 57 10 121l7 44q38 240 189.5 389t327.5 149q199 0 285 -133q62 -95 62 -234q0 -55 -10 -117l-20 -123h-652q-6 -49 -6 -92 q0 -103 36 -172q52 -98 180 -98q88 0 165 29.5t134 77.5l55 -128q-61 -57 -156 -95t-222 -38zM545 1284h-210l32 200h210zM982 1284h-210l32 200h210z"/>
<glyph glyph-name="igrave" horiz-adv-x="497" unicode="ì" d="M254 0h-194l216 1082h194zM484 1217h-153l-196 266h231z"/>
<glyph glyph-name="iacute" horiz-adv-x="497" unicode="í" d="M254 0h-194l216 1082h194zM528 1480h224l2 -6l-295 -260h-142z"/>
<glyph glyph-name="icircumflex" horiz-adv-x="497" unicode="î" d="M254 0h-194l216 1082h194zM705 1283l-5 -25h-156l-104 148l-163 -148h-156l6 26l279 237h114z"/>
<glyph glyph-name="idieresis" horiz-adv-x="497" unicode="ï" d="M254 0h-194l216 1082h194zM298 1262h-210l32 200h210zM735 1262h-210l32 200h210z"/>
<glyph glyph-name="eth" horiz-adv-x="1129" unicode="ð" d="M862 688q-19 58 -84.5 96.5t-172.5 38.5q-109 0 -207.5 -106t-127.5 -251q-10 -48 -10 -90q0 -83 45.5 -163t173.5 -80q112 0 215.5 115.5t138.5 286.5l20 100zM970 1286q74 -121 88 -232.5t14 -172.5q0 -116 -26 -248l-20 -98q-52 -261 -214 -408.5t-368 -147.5 q-191 0 -285 122.5t-94 258.5q0 51 11 106q48 243 203 377.5t357 134.5q72 0 135.5 -34t102.5 -89l4 4q1 20 1 38q0 81 -19.5 156.5t-61.5 138.5l-286 -157l-55 102l259 142q-29 22 -62 40.5t-69 33.5l90 164q65 -22 121 -56.5t103 -81.5l241 132l55 -102z"/>
<glyph glyph-name="ntilde" d="M423 933q66 82 149.5 125.5t179.5 43.5q153 0 227 -104q47 -66 47 -176q0 -62 -15 -139l-137 -683h-193l136 679q13 67 13 115q0 60 -21 92q-38 56 -148 56q-70 0 -139 -42.5t-121 -113.5l-157 -786h-193l216 1082h173zM1080 1522q-16 -97 -82 -160.5t-151 -63.5 q-62 0 -127.5 46.5t-113.5 46.5q-37 0 -70 -33t-40 -78l-100 26q15 96 80.5 163t152.5 67q48 0 120 -47t121 -47q36 0 69.5 32.5t41.5 79.5z" unicode="ñ"/>
<glyph glyph-name="ograve" d="M304 529q-11 -69 -11 -127q1 -94 29 -160q46 -108 177 -109q122 0 208 113.5t113 282.5l3 22q10 66 10 122q0 95 -29 164q-47 110 -176 110q-123 0 -208.5 -114t-112.5 -282zM114 551q40 250 183.5 400.5t354.5 150.5q202 0 302 -156q73 -114 73 -271q0 -59 -10 -124 l-3 -22q-41 -251 -184.5 -400.5t-354.5 -149.5q-203 0 -303 156q-72 112 -72 267q0 60 11 127zM753 1238h-153l-196 266h231z" unicode="ò"/>
<glyph glyph-name="oacute" d="M304 529q-11 -69 -11 -127q1 -94 29 -160q46 -108 177 -109q122 0 208 113.5t113 282.5l3 22q10 66 10 122q0 95 -29 164q-47 110 -176 110q-123 0 -208.5 -114t-112.5 -282zM114 551q40 250 183.5 400.5t354.5 150.5q202 0 302 -156q73 -114 73 -271q0 -59 -10 -124 l-3 -22q-41 -251 -184.5 -400.5t-354.5 -149.5q-203 0 -303 156q-72 112 -72 267q0 60 11 127zM799 1501h224l2 -6l-295 -260h-142z" unicode="ó"/>
<glyph glyph-name="ocircumflex" d="M304 529q-11 -69 -11 -127q1 -94 29 -160q46 -108 177 -109q122 0 208 113.5t113 282.5l3 22q10 66 10 122q0 95 -29 164q-47 110 -176 110q-123 0 -208.5 -114t-112.5 -282zM114 551q40 250 183.5 400.5t354.5 150.5q202 0 302 -156q73 -114 73 -271q0 -59 -10 -124 l-3 -22q-41 -251 -184.5 -400.5t-354.5 -149.5q-203 0 -303 156q-72 112 -72 267q0 60 11 127zM974 1304l-5 -25h-156l-104 148l-163 -148h-156l6 26l279 237h114z" unicode="ô"/>
<glyph glyph-name="otilde" d="M304 529q-11 -69 -11 -127q1 -94 29 -160q46 -108 177 -109q122 0 208 113.5t113 282.5l3 22q10 66 10 122q0 95 -29 164q-47 110 -176 110q-123 0 -208.5 -114t-112.5 -282zM114 551q40 250 183.5 400.5t354.5 150.5q202 0 302 -156q73 -114 73 -271q0 -59 -10 -124 l-3 -22q-41 -251 -184.5 -400.5t-354.5 -149.5q-203 0 -303 156q-72 112 -72 267q0 60 11 127zM1046 1522q-16 -97 -82 -160.5t-151 -63.5q-62 0 -127.5 46.5t-113.5 46.5q-37 0 -70 -33t-40 -78l-100 26q15 96 80.5 163t152.5 67q48 0 120 -47t121 -47q36 0 69.5 32.5 t41.5 79.5z" unicode="õ"/>
<glyph glyph-name="odieresis" d="M304 529q-11 -69 -11 -127q1 -94 29 -160q46 -108 177 -109q122 0 208 113.5t113 282.5l3 22q10 66 10 122q0 95 -29 164q-47 110 -176 110q-123 0 -208.5 -114t-112.5 -282zM114 551q40 250 183.5 400.5t354.5 150.5q202 0 302 -156q73 -114 73 -271q0 -59 -10 -124 l-3 -22q-41 -251 -184.5 -400.5t-354.5 -149.5q-203 0 -303 156q-72 112 -72 267q0 60 11 127zM567 1283h-210l32 200h210zM1004 1283h-210l32 200h210z" unicode="ö"/>
<glyph glyph-name="divide" horiz-adv-x="1099" unicode="÷" d="M582 180h-191l41 203h191zM746 999h-191l40 203h191zM1033 597h-928l38 188h928z"/>
<glyph glyph-name="oslash" d="M823 551q10 69 10 127q0 5 -0.5 38.5t-15.5 76.5l-6 2l-418 -636q21 -13 47.5 -19.5t58.5 -6.5q122 0 208 113.5t113 282.5zM304 529q-12 -70 -12 -130q0 -16 2.5 -60t26.5 -89l6 -1l431 653q-25 22 -57.5 33.5t-72.5 11.5q-123 0 -208.5 -114t-112.5 -282zM114 551 q40 250 183.5 400.5t354.5 150.5q57 0 108 -14.5t93 -40.5l107 162h125l-153 -232q61 -76 78 -160t17 -147q0 -57 -10 -119l-3 -22q-41 -251 -184.5 -400.5t-354.5 -149.5q-50 0 -94 10.5t-81 29.5l-101 -154h-124l142 215q-73 73 -94.5 163.5t-21.5 162.5q0 59 10 123z" unicode="ø"/>
<glyph glyph-name="ugrave" d="M700 0l17 148q-64 -83 -145.5 -126t-178.5 -43q-155 0 -229 115q-46 71 -46 186q0 73 18 164l127 638h193l-128 -640q-20 -97 -20 -160q0 -56 16 -84q33 -60 133 -59q89 0 161.5 44t122.5 122l155 777h193l-216 -1082h-173zM784 1217h-153l-196 266h231z" unicode="ù"/>
<glyph glyph-name="uacute" d="M700 0l17 148q-64 -83 -145.5 -126t-178.5 -43q-155 0 -229 115q-46 71 -46 186q0 73 18 164l127 638h193l-128 -640q-20 -97 -20 -160q0 -56 16 -84q33 -60 133 -59q89 0 161.5 44t122.5 122l155 777h193l-216 -1082h-173zM830 1480h224l2 -6l-295 -260h-142z" unicode="ú"/>
<glyph glyph-name="ucircumflex" d="M700 0l17 148q-64 -83 -145.5 -126t-178.5 -43q-155 0 -229 115q-46 71 -46 186q0 73 18 164l127 638h193l-128 -640q-20 -97 -20 -160q0 -56 16 -84q33 -60 133 -59q89 0 161.5 44t122.5 122l155 777h193l-216 -1082h-173zM1005 1283l-5 -25h-156l-104 148l-163 -148 h-156l6 26l279 237h114z" unicode="û"/>
<glyph glyph-name="udieresis" d="M700 0l17 148q-64 -83 -145.5 -126t-178.5 -43q-155 0 -229 115q-46 71 -46 186q0 73 18 164l127 638h193l-128 -640q-20 -97 -20 -160q0 -56 16 -84q33 -60 133 -59q89 0 161.5 44t122.5 122l155 777h193l-216 -1082h-173zM598 1262h-210l32 200h210zM1035 1262h-210 l32 200h210z" unicode="ü"/>
<glyph glyph-name="yacute" horiz-adv-x="972" unicode="ý" d="M442 401l5 -123l6 -1l402 805h215l-670 -1248q-62 -109 -150 -190t-208 -81q-21 0 -56 5.5t-54 10.5l51 155l29 -2q43 -3 53 -3q52 0 104.5 60t84.5 120l66 113l-161 1060h216zM769 1480h224l2 -6l-295 -260h-142z"/>
<glyph glyph-name="thorn" horiz-adv-x="1118" unicode="þ" d="M832 501q17 84 17 155q0 92 -39 189t-170 97q-67 0 -124 -39t-103 -106l-106 -530q26 -63 78 -98.5t133 -35.5q119 0 198 93.5t112 253.5zM1021 480q-50 -250 -168.5 -375.5t-305.5 -125.5q-87 0 -157.5 33t-114.5 96l-21 -108l-83 -416h-193l83 416l16 83l200 999 l96 478h193l-114 -570q58 54 128.5 83t150.5 29q175 0 244 -141t69 -282q0 -83 -19 -178z"/>
<glyph glyph-name="dotlessi" horiz-adv-x="497" unicode="ı" d="M254 0h-194l216 1082h194z"/>
<glyph glyph-name="kgreenlandic" horiz-adv-x="1078" unicode="ĸ" d="M433 459h-88l-91 -459h-193l216 1082h193l-92 -457h73l444 457h226l2 -6l-520 -512l338 -564h-243z"/>
<glyph glyph-name="OE" horiz-adv-x="1839" unicode="Œ" d="M567 134q48 0 100.5 4t104.5 12l231 1156q-49 7 -99 11.5t-102 4.5q-144 0 -259.5 -115.5t-157.5 -324.5l-61 -306q-19 -94 -19 -168q0 -105 52 -189.5t210 -84.5zM1646 0h-840q-87 -10 -147.5 -15.5t-122.5 -5.5q-219 0 -320 143t-101 304q0 71 16 150l61 304 q56 282 229.5 439.5t411.5 157.5q59 0 127.5 -6t136.5 -15h829l-31 -155h-700l-94 -471h616l-31 -155h-616l-104 -521h711z"/>
<glyph glyph-name="oe" horiz-adv-x="1729" unicode="œ" d="M1350 947q-81 0 -163 -84.5t-122 -207.5l3 -6h445l5 26q9 46 9 86q0 65 -32 125.5t-145 60.5zM310 529q-17 -85 -17 -154q0 -79 32.5 -160.5t163.5 -81.5q119 0 211 114t126 282l4 22q16 82 16 148q0 81 -33.5 164.5t-163.5 83.5q-119 0 -210.5 -115t-124.5 -281z M121 551q51 256 199 403.5t360 147.5q110 0 192 -53.5t125 -148.5q79 97 180 149.5t204 52.5q192 0 262.5 -112t70.5 -238q0 -63 -14 -134l-25 -123h-652q-11 -64 -11 -117q0 -88 39 -166.5t168 -78.5q85 0 164.5 29.5t138.5 77.5l49 -128q-64 -57 -160.5 -95t-222.5 -38 q-112 0 -196 51.5t-128 144.5q-77 -96 -180 -146t-226 -50q-196 0 -276.5 131t-80.5 271q0 70 16 148z"/>
<glyph glyph-name="Scaron" horiz-adv-x="1180" unicode="Š" d="M886 334q7 33 7 63q-1 72 -41 119q-56 67 -227 130q-209 70 -299 174q-62 73 -63 190q0 51 12 110q34 174 167.5 265.5t325.5 91.5q214 1 332 -119q86 -87 86 -220q0 -50 -12 -107l-2 -5h-186q8 38 8 72q0 85 -49 143q-68 81 -208 81q-99 0 -175.5 -57.5t-93.5 -142.5 q-8 -40 -8 -74q0 -69 34 -109q51 -60 232 -129q214 -78 302 -180q62 -72 62 -187q0 -50 -11 -107q-36 -182 -172 -269.5t-337 -87.5q-216 1 -360 109q-107 80 -106 225q0 51 13 110l2 6h185q-9 -45 -9 -82q1 -101 67 -149q92 -66 239 -65q101 0 184 57t101 144zM831 1738 l164 148h165l-4 -18l-291 -245h-113l-190 243l4 20h161z"/>
<glyph glyph-name="scaron" horiz-adv-x="1010" unicode="š" d="M695 287q2 15 2 29q0 47 -29 79q-38 41 -158 72q-178 43 -260 117q-66 59 -65 151q0 23 4 49q22 137 141 227.5t289 90.5t262 -98q72 -76 72 -177q0 -28 -6 -58l-3 -6h-185q3 16 3 30q0 55 -35 99q-44 56 -132 55q-90 0 -146 -46.5t-66 -110.5q-3 -16 -3 -31 q0 -45 26 -71q34 -35 157 -65q185 -43 266 -119q65 -61 65 -155q0 -23 -4 -48q-24 -149 -146 -235.5t-300 -86.5q-186 0 -284 106q-76 82 -76 184q0 29 6 60l2 6h185q-2 -19 -2 -37q0 -76 47 -116q58 -48 146 -49q91 0 153.5 43t73.5 111zM660 1395l164 148h165l-4 -18 l-291 -245h-113l-190 243l4 20h161z"/>
<glyph glyph-name="Ydieresis" horiz-adv-x="1194" unicode="Ÿ" d="M656 739l6 -1l486 718h219l-660 -943l-103 -513h-192l105 526l-279 930h220zM719 1604h-210l32 200h210zM1156 1604h-210l32 200h210z"/>
<glyph glyph-name="circumflex" horiz-adv-x="933" unicode="ˆ" d="M914 1277l-5 -25h-156l-104 148l-163 -148h-156l6 26l279 237h114z"/>
<glyph glyph-name="caron" horiz-adv-x="879" unicode="ˇ" d="M619 1367l164 148h165l-4 -18l-291 -245h-113l-190 243l4 20h161z"/>
<glyph glyph-name="ring" horiz-adv-x="660" unicode="˚" d="M400 1308q-3 -14 -3 -26q1 -29 17 -49q24 -29 64 -29q37 0 73 30t45 74q3 14 3 26q0 30 -16 52q-22 30 -63 29q-38 0 -75 -31.5t-45 -75.5zM301 1308q18 90 85 144t152 54q76 0 124 -58q36 -43 37 -100q0 -19 -4 -40q-19 -92 -85 -143t-150 -51q-78 0 -128 55 q-36 40 -36 96q0 21 5 43z"/>
<glyph glyph-name="tilde" horiz-adv-x="932" unicode="˜" d="M953 1491q-16 -97 -82 -160.5t-151 -63.5q-62 0 -127.5 46.5t-113.5 46.5q-37 0 -70 -33t-40 -78l-100 26q15 96 80.5 163t152.5 67q48 0 120 -47t121 -47q36 0 69.5 32.5t41.5 79.5z"/>
<glyph glyph-name="Alpha" horiz-adv-x="1270" unicode="Α" d="M437 540h445l-88 647l-6 2zM905 375h-558l-203 -375h-196l816 1456h164l225 -1456h-197z"/>
<glyph glyph-name="Beta" horiz-adv-x="1233" unicode="Β" d="M446 837h295q90 0 167.5 61.5t98.5 167.5q8 39 8 72q1 71 -37 108q-54 55 -184 55h-255zM415 683l-105 -529h312q113 0 197.5 67.5t109.5 187.5q10 53 10 96q-1 67 -25 109q-40 69 -158 69h-341zM86 0l291 1456h448q199 0 306 -100q78 -73 78 -197q0 -45 -10 -97 q-21 -103 -92 -177t-174 -110q117 -27 167 -129q32 -66 32 -145q0 -43 -10 -90q-43 -213 -181 -312t-350 -99h-505z"/>
<glyph glyph-name="Gamma" horiz-adv-x="1071" unicode="Γ" d="M1179 1301h-639l-260 -1301h-194l291 1456h833z"/>
<glyph glyph-name="Epsilon" horiz-adv-x="1125" unicode="Ε" d="M1030 675h-616l-104 -521h711l-31 -154h-904l291 1456h893l-31 -155h-700l-94 -471h616z"/>
<glyph glyph-name="Zeta" horiz-adv-x="1149" unicode="Ζ" d="M260 154h683l-31 -154h-877l9 146l823 1155h-614l31 155h832l-28 -141z"/>
<glyph glyph-name="Eta" horiz-adv-x="1370" unicode="Η" d="M1114 0h-193l128 643h-642l-128 -643h-193l291 1456h193l-132 -658h642l132 658h193z"/>
<glyph glyph-name="Theta" horiz-adv-x="1311" unicode="Θ" d="M1093 850q14 70 14 130q0 122 -70.5 228.5t-241.5 106.5q-144 0 -254.5 -124t-149.5 -322l-53 -262q-15 -75 -15 -139q0 -118 65 -223t227 -105q154 0 269.5 123.5t156.5 324.5zM1234 588q-58 -287 -230.5 -448t-420.5 -161q-224 0 -338.5 158t-114.5 330q0 67 15 140 l52 260q57 286 223.5 448t406.5 162q232 0 352.5 -160t120.5 -335q0 -64 -14 -134zM943 659h-468l31 154h468z"/>
<glyph glyph-name="Iota" horiz-adv-x="552" unicode="Ι" d="M287 0h-194l291 1456h194z"/>
<glyph glyph-name="Kappa" horiz-adv-x="1236" unicode="Κ" d="M513 658h-128l-131 -658h-194l291 1456h194l-127 -633h142l535 633h237l2 -5l-654 -726l385 -725h-220z"/>
<glyph glyph-name="Lambda" horiz-adv-x="1263" unicode="Λ" d="M775 1152l-6 1l-609 -1153h-197l788 1456h165l206 -1456h-197z"/>
<glyph glyph-name="Mu" horiz-adv-x="1686" unicode="Μ" d="M624 1456l186 -1182l5 -1l659 1183h246l-291 -1456h-193l115 576l134 573l-5 2l-659 -1151h-128l-198 1148h-6l-95 -572l-115 -576h-193l291 1456h247z"/>
<glyph glyph-name="Nu" horiz-adv-x="1370" unicode="Ν" d="M1114 0h-194l-413 1112l-6 -1l-222 -1111h-193l291 1456h193l413 -1110l6 1l222 1109h194z"/>
<glyph glyph-name="Xi" horiz-adv-x="1105" unicode="Ξ" d="M326 1456h865l-31 -155h-865zM278 833h713l-31 -155h-713zM66 154h874l-31 -154h-874z"/>
<glyph glyph-name="Omicron" horiz-adv-x="1311" unicode="Ο" d="M1093 850q14 70 14 130q-1 122 -57 208q-84 128 -255 127q-144 0 -254.5 -124t-149.5 -322l-53 -262q-15 -75 -15 -139q0 -118 51 -200q79 -128 241 -128q154 0 269.5 123.5t156.5 324.5zM1234 588q-58 -287 -230.5 -448t-420.5 -161q-224 0 -357 184q-96 132 -96 304 q0 67 15 140l52 260q57 286 223.5 448t406.5 162q232 0 371 -185q102 -135 102 -310q0 -64 -14 -134z"/>
<glyph glyph-name="Pi" horiz-adv-x="1372" unicode="Π" d="M1116 0h-194l260 1301h-643l-260 -1301h-193l291 1456h1030z"/>
<glyph glyph-name="Rho" horiz-adv-x="1236" unicode="Ρ" d="M426 738h333q124 0 210.5 81t110.5 199q8 43 8 80q0 74 -32 126q-50 78 -185 77h-332zM395 584l-116 -584h-193l291 1456h525q202 0 306 -122q76 -89 75 -216q0 -47 -10 -98q-43 -211 -183.5 -323.5t-361.5 -112.5h-333z"/>
<glyph glyph-name="Sigma" horiz-adv-x="1105" unicode="Σ" d="M775 715l-525 -554l3 -6h721l-31 -155h-957l29 147l559 581l-326 581l29 147h911l-31 -155h-684l307 -562z"/>
<glyph glyph-name="Tau" horiz-adv-x="1124" unicode="Τ" d="M1264 1301h-431l-260 -1301h-193l260 1301h-430l31 155h1054z"/>
<glyph glyph-name="Upsilon" horiz-adv-x="1194" unicode="Υ" d="M656 739l6 -1l486 718h219l-660 -943l-103 -513h-192l105 526l-279 930h220z"/>
<glyph glyph-name="Phi" horiz-adv-x="1375" unicode="Φ" d="M922 1116l-157 -786h8q140 0 249.5 108t145.5 286q15 73 15 133q0 97 -50 178t-203 81h-8zM720 1116q-142 0 -251.5 -108.5t-144.5 -285.5q-15 -75 -15 -136q0 -96 49.5 -176t204.5 -80h9l157 786h-9zM953 1270h6q202 0 308 -134t106 -288q0 -59 -13 -124 q-52 -257 -226 -403t-394 -146h-6l-35 -175h-193l35 175h-9q-203 0 -307.5 134t-104.5 288q0 60 13 125q51 256 224 402t394 146h9l37 186h193z"/>
<glyph glyph-name="Chi" horiz-adv-x="1219" unicode="Χ" d="M684 888l398 568h234l-543 -722l318 -734h-230l-223 578l-407 -578h-234l553 734l-311 722h231z"/>
<glyph glyph-name="Psi" horiz-adv-x="1326" unicode="Ψ" d="M753 489l6 -3q127 22 228.5 128t134.5 271l114 571h193l-114 -571q-52 -261 -211 -402.5t-385 -163.5l-64 -319h-194l64 321q-195 28 -281 153.5t-86 268.5q0 67 15 142l114 571h192l-114 -571q-15 -75 -15 -136q0 -86 41 -165.5t161 -97.5h6l194 970h194z"/>
<glyph glyph-name="alpha" horiz-adv-x="1088" unicode="α" d="M303 500q-16 -80 -16 -144q0 -75 31.5 -149t161.5 -74q72 0 135 45.5t117 127.5l95 474q-21 78 -65 122.5t-118 44.5q-121 0 -211 -122t-126 -304zM1081 1082l-157 -786q-11 -53 -11 -85q0 -21 8.5 -42t40.5 -21q6 0 14.5 1.5t13.5 4.5l-4 -141q-34 -20 -64 -27t-65 -7 q-61 0 -98 37t-43 115q-64 -75 -143 -113.5t-174 -38.5q-173 0 -240 119.5t-67 247.5q0 72 17 154l4 21q55 278 188 429.5t324 151.5q87 0 149.5 -40t98.5 -115l45 135h163z"/>
<glyph glyph-name="beta" horiz-adv-x="1138" unicode="β" d="M654 860q103 0 171 62t89 165q6 32 6 61q0 61 -35 117.5t-135 56.5q-91 0 -174.5 -72.5t-103.5 -176.5l-169 -841q31 -48 89.5 -73.5t138.5 -25.5q108 0 195 81.5t112 206.5q8 43 8 81q0 67 -32.5 135t-131.5 68h-133l31 155h74zM781 1477q171 0 253 -96.5t82 -211.5 q0 -41 -9 -86q-21 -98 -82 -174t-152 -119q96 -47 132 -127t36 -154q0 -41 -9 -84q-45 -223 -182.5 -334.5t-329.5 -111.5q-71 0 -137 22.5t-112 67.5l-91 -452h-194l292 1456q35 176 181 290t322 114z"/>
<glyph glyph-name="gamma" horiz-adv-x="972" unicode="γ" d="M870 1082h197l-550 -1016l-96 -482h-193l97 484h2l-148 1014h198l81 -763v-63l6 -2l28 65z"/>
<glyph glyph-name="delta" d="M310 529q-17 -85 -17 -154q0 -79 32.5 -160.5t164.5 -81.5q118 0 210 114t126 282l4 22q11 57 11 108q0 68 -28.5 143.5t-105.5 133.5q-13 5 -27 8t-30 3q-119 0 -211 -115t-125 -281zM1093 1456l-30 -151h-420q194 -163 293.5 -324t99.5 -314q0 -57 -12 -116l-4 -22 q-52 -257 -200 -403.5t-361 -146.5q-196 0 -277 131t-81 271q0 69 16 148l4 22q42 215 175 352t330 164h3.5h2.5q-59 68 -121.5 132.5t-127.5 120.5l27 136h683z" unicode="δ"/>
<glyph glyph-name="epsilon" horiz-adv-x="1034" unicode="ε" d="M712 477h-198q-101 0 -166.5 -43.5t-82.5 -128.5q-4 -18 -4 -35q0 -54 45.5 -96t152.5 -42q93 0 172.5 57t94.5 131h182l2 -6q-30 -173 -167.5 -253t-313.5 -80t-270.5 78t-94.5 183q0 30 7 63q19 98 80 161.5t160 93.5q-72 36 -101.5 87t-29.5 97q0 20 5 42 q32 160 154 237t314 77q159 0 250.5 -78t91.5 -174q0 -30 -8 -62l-2 -6h-184q3 16 3 31q0 54 -45.5 95.5t-135.5 41.5q-96 0 -164 -48.5t-81 -113.5q-5 -23 -5 -43q0 -48 33.5 -82t137.5 -34h198l-8 -40l-14 -71z"/>
<glyph glyph-name="zeta" horiz-adv-x="1013" unicode="ζ" d="M1119 1456l-22 -112l-398 -432q-151 -155 -227 -268.5t-105 -256.5q-10 -51 -10 -91q0 -55 27.5 -98.5t119.5 -43.5h24q142 0 211 -57t69 -141q0 -27 -6 -57q-25 -112 -114.5 -194t-201.5 -129l-54 127q67 32 118.5 74.5t66.5 112.5q2 13 2 25q0 37 -28 61t-114 24h-44 q-154 0 -212.5 91.5t-58.5 190.5q0 47 11 100q25 125 121.5 281.5t266.5 328.5l309 303l-2 6h-576l31 155h796z"/>
<glyph glyph-name="eta" d="M424 944q65 77 146.5 117.5t174.5 40.5q155 0 214.5 -81t59.5 -191q0 -65 -16 -147l-220 -1098h-193l219 1094q13 67 13 116q0 62 -30 107t-139 45q-72 0 -135 -35t-111 -96l-163 -816h-193l216 1082h173z" unicode="η"/>
<glyph glyph-name="theta" horiz-adv-x="1092" unicode="θ" d="M830 648h-479l-26 -133q-19 -97 -19 -168q0 -77 32.5 -145.5t151.5 -68.5q109 0 192.5 98t121.5 284zM382 803h479l28 139q19 97 19 169q0 76 -32 143.5t-151 67.5q-109 0 -193.5 -97.5t-121.5 -282.5zM1005 555q-60 -297 -200.5 -436.5t-345.5 -139.5q-187 0 -263 123.5 t-76 266.5q0 84 20 186l69 345q59 296 201 436.5t346 140.5q188 0 263 -124t75 -268q0 -84 -20 -185z"/>
<glyph glyph-name="iota" horiz-adv-x="642" unicode="ι" d="M514 1081l-162 -813q-8 -37 -8 -63q0 -28 13.5 -47t53.5 -19q21 0 46 7.5t43 18.5l16 -133q-49 -31 -93 -42t-96 -11q-104 0 -141.5 58t-37.5 130q0 49 13 112l160 802h193z"/>
<glyph glyph-name="kappa" horiz-adv-x="1078" unicode="κ" d="M433 459h-88l-91 -459h-193l216 1082h193l-92 -457h73l444 457h226l2 -6l-520 -512l338 -564h-243z"/>
<glyph glyph-name="lambda" d="M187 0h-215l567 1027l-21 146q-14 83 -44 136.5t-84 53.5q-9 0 -34.5 -2.5t-29.5 -2.5l30 145q19 5 50 10t54 5q112 0 173.5 -84.5t77.5 -185.5l145 -946q7 -71 30.5 -113t62.5 -42q12 0 17 0.5t26 4.5l-33 -154q-12 -5 -29.5 -10t-27.5 -5q-103 0 -162.5 67t-81.5 203 l-80 519l-6 1l-46 -103z" unicode="λ"/>
<glyph glyph-name="uni03BC" d="M469 1082l-125 -623l1 1q-22 -109 -22 -177q1 -59 17 -88q36 -62 132 -62q83 0 146 38t108 109l160 802h193l-216 -1082h-174l12 95q-51 -58 -114.5 -87t-138.5 -29q-62 0 -108.5 16.5t-77.5 53.5l-92 -465h-192l299 1498h192z" unicode="μ"/>
<glyph glyph-name="nu" horiz-adv-x="972" unicode="ν" d="M460 319l3 -64l6 -1l25 65l348 763h197l-542 -1082h-145l-201 1082h198z"/>
<glyph glyph-name="xi" horiz-adv-x="980" unicode="ξ" d="M1070 1456l-31 -155h-276q-106 -8 -179.5 -74.5t-91.5 -159.5q-5 -27 -5 -50q0 -63 47.5 -106t189.5 -43h134l-24 -118l-7 -37h-134q-162 0 -271 -79.5t-139 -229.5q-8 -41 -8 -76q0 -74 46 -134t173 -60h57q141 0 208.5 -57t67.5 -141q0 -27 -6 -58 q-25 -111 -113.5 -193.5t-201.5 -128.5l-52 127q66 31 117 73.5t66 112.5q3 16 3 30q0 34 -21.5 58t-90.5 24h-65q-193 0 -288.5 99.5t-95.5 228.5q0 47 11 99q30 157 124 253.5t246 136.5q-91 41 -128.5 101t-37.5 118q0 22 5 46q15 81 52.5 140t95.5 98h-189l31 155h781z "/>
<glyph glyph-name="omicron" d="M304 529q-11 -69 -11 -127q1 -94 29 -160q46 -108 177 -109q122 0 208 113.5t113 282.5l3 22q10 66 10 122q0 95 -29 164q-47 110 -176 110q-123 0 -208.5 -114t-112.5 -282zM114 551q40 250 183.5 400.5t354.5 150.5q202 0 302 -156q73 -114 73 -271q0 -59 -10 -124 l-3 -22q-41 -251 -184.5 -400.5t-354.5 -149.5q-203 0 -303 156q-72 112 -72 267q0 60 11 127z" unicode="ο"/>
<glyph glyph-name="pi" horiz-adv-x="1146" unicode="π" d="M1145 926h-108l-131 -658q-8 -37 -8 -63q0 -28 13.5 -47t53.5 -19q21 0 46 7.5t43 18.5l16 -133q-49 -31 -93 -42t-96 -11q-104 0 -141.5 58t-37.5 130q0 49 13 112l129 647h-357l-185 -926h-193l185 926h-116l31 156h967z"/>
<glyph glyph-name="rho" d="M821 521q20 105 20 186q0 74 -26 157t-155 83q-102 0 -188.5 -118.5t-112.5 -252.5l-61 -305q21 -66 66.5 -102t124.5 -36q119 0 207 104t121 263zM1010 500q-50 -250 -177 -385.5t-315 -135.5q-84 0 -148.5 30.5t-105.5 90.5l-103 -516h-193l198 992v1 q53 264 196.5 394.5t328.5 130.5q199 0 270.5 -132t71.5 -272q0 -82 -19 -177z" unicode="ρ"/>
<glyph glyph-name="sigma1" horiz-adv-x="1036" unicode="ς" d="M673 1102q164 0 243.5 -90.5t79.5 -199.5q0 -46 -11 -98l-3 -5h-175q7 38 7 70q0 62 -33 115t-139 53q-116 0 -206.5 -117t-120.5 -268l-8 -42q-11 -56 -11 -104q0 -83 43.5 -161.5t192.5 -102.5q166 -26 226.5 -72t60.5 -123q0 -28 -7 -60q-24 -111 -113 -193t-201 -129 l-55 127q66 31 118 73.5t67 112.5q2 11 2 22q0 35 -30.5 56t-118.5 34q-228 35 -305 148.5t-77 242.5q0 61 14 129l8 42q48 241 195.5 390.5t356.5 149.5z"/>
<glyph glyph-name="sigma" d="M310 529q-17 -85 -17 -154q0 -79 32.5 -160.5t164.5 -81.5q118 0 210 114t126 282l4 22q15 75 15 136q0 79 -34.5 159t-164.5 80q-119 0 -210 -109t-122 -266zM1175 926h-256q72 -72 91 -151t19 -138q0 -60 -13 -125l-4 -22q-45 -223 -195 -367t-358 -144 q-196 0 -277 131t-81 271q0 69 16 148l4 22q49 247 196.5 389t359.5 142h529z" unicode="σ"/>
<glyph glyph-name="tau" horiz-adv-x="1010" unicode="τ" d="M1027 929h-329l-185 -929h-193l185 929h-323l30 153h845z"/>
<glyph glyph-name="upsilon" d="M458 1082l-122 -612q-17 -84 -17 -146q0 -75 36 -133t146 -58q115 0 206.5 130t125.5 299q18 103 18 207q0 24 -3 100t-27 213h201q27 -105 29 -177.5t2 -87.5q0 -118 -27 -255q-54 -269 -187.5 -426t-358.5 -157q-195 0 -274.5 102.5t-79.5 237.5q0 69 17 153l122 610 h193z" unicode="υ"/>
<glyph glyph-name="phi" horiz-adv-x="1364" unicode="φ" d="M715 151l5 -3q156 24 260.5 133t131.5 243q9 53 9 102q0 100 -49 196.5t-188 96.5h-10l-6 -1zM901 1082q198 0 307.5 -141.5t109.5 -297.5q0 -57 -12 -119q-47 -231 -199.5 -375t-425.5 -166l-92 -461h-194l92 463q-233 29 -314.5 166t-81.5 275q0 66 15 138 q32 164 84 285t124 233h201q-78 -133 -133 -262t-83 -256q-13 -64 -13 -121q0 -86 40 -178.5t189 -115.5l6 1l186 932h194z"/>
<glyph glyph-name="chi" horiz-adv-x="1080" unicode="χ" d="M333 1097q113 0 174.5 -83.5t77.5 -184.5l37 -205l5 -1l300 459h193l-453 -705l90 -494q13 -72 34 -110t60 -38q12 0 16 1t26 4l-35 -162q-10 -6 -28 -10.5t-30 -4.5q-103 0 -161 67.5t-76 204.5l-54 287l-5 1l-347 -538h-205l511 785l-71 383q-13 81 -44 132t-86 51 q-9 0 -34.5 -2.5t-29.5 -2.5l29 151q23 5 53 10t53 5z"/>
<glyph glyph-name="psi" horiz-adv-x="1354" unicode="ψ" d="M892 1081l-186 -927l5 -3q155 26 262 147t137 269q19 107 19 215q0 20 -2.5 94t-27.5 206h202q27 -105 29 -176t2 -84q0 -118 -28 -255q-51 -253 -204 -407.5t-428 -176.5l-91 -457h-195l92 460q-214 29 -296 154t-82 274q0 83 20 182l97 486h193l-97 -488 q-20 -100 -20 -176q0 -91 41.5 -172t170.5 -97l6 1l186 931h195z"/>
<glyph glyph-name="uni03D1" horiz-adv-x="1187" unicode="ϑ" d="M802 1034q-9 -43 -9 -80q0 -72 42 -135t160 -67l6 2l69 344q11 58 11 99t-16 79.5t-79 38.5q-55 0 -102.5 -55.5t-68.5 -161.5zM552 140q141 0 256.5 120.5t157.5 324.5q-188 10 -277.5 120t-89.5 236q0 45 10 95l13 62q36 184 143 281.5t253 97.5q137 0 196 -86t59 -188 q0 -49 -11 -105l-102 -506q-59 -296 -230.5 -454.5t-409.5 -158.5q-208 0 -302 148.5t-94 307.5q0 74 17 157l132 660l194 2l-133 -662q-18 -90 -18 -163q0 -100 45.5 -194.5t190.5 -94.5z"/>
<glyph glyph-name="uni03D2" horiz-adv-x="1022" unicode="ϒ" d="M853 1239q72 124 139.5 176t142.5 52q30 0 53.5 -5t45.5 -19l-53 -152q-4 3 -12.5 5.5t-19.5 2.5q-28 0 -56.5 -17.5t-47.5 -56.5l-410 -645l-116 -580h-192l115 578l-151 647q-6 39 -26 56.5t-48 17.5q-12 0 -22.5 -2.5t-14.5 -5.5l11 152q25 14 49.5 19t56.5 5 q69 0 118 -53t73 -175l84 -406l2 -58l6 -1l28 59z"/>
<glyph glyph-name="uni03D6" horiz-adv-x="1505" unicode="ϖ" d="M1224 562q15 86 15 174l-1 48q0 49 -13 142h-736q-52 -93 -88.5 -184t-56.5 -180q-30 -151 -30 -253q0 -33 7.5 -100.5t78.5 -67.5h8l6 -2h9q74 0 143 79t104 252l50 250h194l-50 -250q-20 -97 -20 -163q0 -62 25 -114.5t105 -52.5h13l6 -1h5q66 0 127.5 119t98.5 304z M1555 926h-122q8 -62 8 -131q0 -20 -2 -76t-22 -157q-54 -269 -164 -426t-284 -157q-103 0 -168 60t-82 174q-60 -119 -148 -176.5t-203 -57.5q-161 0 -201 127t-40 235q0 101 24 221q21 106 53.5 195t75.5 169h-100l31 156h1375z"/>
<glyph glyph-name="uni2002" horiz-adv-x="981" unicode=" "/>
<glyph glyph-name="uni2003" horiz-adv-x="1953" unicode=" "/>
<glyph glyph-name="uni2009" horiz-adv-x="399" unicode=" "/>
<glyph glyph-name="endash" horiz-adv-x="1327" unicode="–" d="M1242 648h-1009l40 155h1009z"/>
<glyph glyph-name="emdash" horiz-adv-x="1553" unicode="—" d="M1498 648h-1242l50 155h1241z"/>
<glyph glyph-name="quoteleft" horiz-adv-x="406" unicode="‘" d="M234 1204l226 356h94l-128 -362l-36 -178h-193z"/>
<glyph glyph-name="quoteright" horiz-adv-x="406" unicode="’" d="M515 1367l-224 -346h-94l124 343l39 196h194z"/>
<glyph glyph-name="quotesinglbase" horiz-adv-x="406" unicode="‚" d="M248 26l-212 -281h-94l110 263l48 241h193z"/>
<glyph glyph-name="quotedblleft" horiz-adv-x="719" unicode="“" d="M234 1204l226 356h94l-128 -362l-36 -178h-193zM547 1204l226 356h94l-128 -362l-36 -178h-193z"/>
<glyph glyph-name="quotedblright" horiz-adv-x="727" unicode="”" d="M515 1367l-224 -346h-94l124 343l39 196h194zM836 1367l-224 -346h-94l124 343l39 196h194z"/>
<glyph glyph-name="dagger" horiz-adv-x="1060" unicode="†" d="M1069 926h-367l-148 -926h-193l148 926h-361l25 156h361l60 374h193l-60 -374h367z"/>
<glyph glyph-name="daggerdbl" horiz-adv-x="1100" unicode="‡" d="M936 0h-366l-66 -416h-193l66 416h-361l25 154h361l124 772h-362l25 156h362l60 374h193l-60 -374h365l-25 -156h-365l-124 -772h366z"/>
<glyph glyph-name="ellipsis" horiz-adv-x="1302" unicode="…" d="M260 0h-191l40 202h191zM673 0h-191l40 202h191zM1067 0h-191l40 202h191z"/>
<glyph glyph-name="perthousand" horiz-adv-x="1824" unicode="‰" d="M368 110l-93 67l890 1138l93 -67zM1298 279q-6 -30 -6 -56q0 -42 21 -82t90 -40q61 0 110 52.5t64 125.5l15 78q6 29 6 54q0 43 -21 83.5t-89 40.5q-63 0 -112 -53t-63 -125zM338 1099q-6 -30 -6 -56q0 -42 21 -81.5t90 -39.5q62 0 111 52t64 125l15 77q5 29 5 54 q0 43 -21 84t-89 41q-62 0 -111.5 -53.5t-63.5 -125.5zM876 279q-6 -30 -6 -56q0 -42 21 -82t90 -40q62 0 111 52.5t64 125.5l15 78q5 29 5 53q0 43 -21 84t-89 41q-62 0 -111.5 -53t-63.5 -125zM211 1176q27 135 119 218t222 83q121 0 175.5 -75.5t54.5 -157.5 q0 -32 -7 -68l-15 -77q-28 -135 -119.5 -217t-221.5 -82q-121 0 -176 75t-55 155q0 33 8 69zM749 357q27 135 119 217.5t222 82.5q63 0 110.5 -30.5t74.5 -83.5q44 54 104.5 84t131.5 30q120 0 175 -75.5t55 -157.5q0 -32 -7 -67l-15 -78q-28 -136 -119.5 -218t-221.5 -82 q-64 0 -111.5 30t-73.5 83q-45 -55 -105.5 -84t-130.5 -29q-121 0 -176 75t-55 156q0 33 8 69z"/>
<glyph glyph-name="minute" horiz-adv-x="345" unicode="′" d="M393 1337l-105 -282h-93l41 265l39 240h154z"/>
<glyph glyph-name="second" horiz-adv-x="642" unicode="″" d="M681 1290l-101 -250h-93l39 248l44 272h155zM385 1290l-100 -250h-94l39 240l45 280h154z"/>
<glyph glyph-name="guilsinglleft" horiz-adv-x="583" unicode="‹" d="M313 550l155 -398h-143l-197 389l1 6l3 13l353 389h143z"/>
<glyph glyph-name="guilsinglright" horiz-adv-x="583" unicode="›" d="M334 949l196 -389l-2 -6h1l-3 -13l-352 -389h-143l314 398l-154 399h143z"/>
<glyph glyph-name="fraction" horiz-adv-x="880" unicode="⁄" d="M102 110l-93 67l890 1138l93 -67z"/>
<glyph glyph-name="Euro" horiz-adv-x="1024" unicode="€" d="M867 481h-451q-11 -55 -11 -102q0 -86 47.5 -166t183.5 -80q50 0 105.5 8.5t106.5 25.5l-12 -157q-57 -15 -115.5 -23t-115.5 -8q-203 0 -298.5 126t-95.5 264q0 53 12 112h-133l30 155h133l27 136h-133l31 155h133l3 15q52 260 210 397.5t378 137.5q52 0 108 -8.5 t113 -22.5l-51 -159q-47 16 -97.5 25.5t-103.5 9.5q-124 0 -227 -104.5t-136 -273.5l-4 -17h451l-31 -155h-451l-27 -136h451z"/>
<glyph glyph-name="trademark" horiz-adv-x="1207" unicode="™" d="M649 1374h-135l-90 -455h-90l90 455h-132l16 82h357zM918 1068l6 -2l227 390h105l-107 -537h-89l67 336l-6 2l-205 -338h-47l-73 350h-6l-70 -350h-90l107 537h111z"/>
<glyph glyph-name="partialdiff" horiz-adv-x="1113" unicode="∂" d="M479 133q112 0 215.5 115.5t138.5 286.5l26 134q-19 66 -88.5 110t-185.5 44q-113 0 -199 -103t-116 -254q-10 -48 -10 -90q0 -83 45.5 -163t173.5 -80zM675 1517q231 -63 323 -230.5t92 -338.5q0 -91 -20 -193l-44 -220q-52 -261 -214 -408.5t-368 -147.5 q-191 0 -285 122.5t-94 258.5q0 51 11 106q49 248 190.5 380t349.5 132q83 0 154.5 -30.5t112.5 -83.5l4 4q5 46 5 88q0 144 -74 243t-233 154z"/>
<glyph glyph-name="product" horiz-adv-x="1357" unicode="∏" d="M1093 -211h-193l242 1512h-650l-242 -1512h-194l267 1667h1037z"/>
<glyph glyph-name="summation" horiz-adv-x="1130" unicode="∑" d="M874 577l-681 -685l2 -6h819l-31 -155h-1051l29 146l711 713l-424 719l29 147h976l-31 -155h-753l410 -699z"/>
<glyph glyph-name="minus" horiz-adv-x="1098" unicode="−" d="M983 648h-776l31 155h776z"/>
<glyph glyph-name="radical" horiz-adv-x="1178" unicode="√" d="M514 340l-1 -72l6 -2l31 74l595 1116h197l-808 -1456h-145l-108 628h-177l31 156h317z"/>
<glyph glyph-name="infinity" horiz-adv-x="1949" unicode="∞" d="M1676 573q17 84 17 151q0 73 -29.5 148t-141.5 75q-113 0 -243.5 -141.5t-180.5 -243.5l-8 -42q7 -110 76.5 -248.5t191.5 -138.5q104 0 187.5 104.5t116.5 269.5zM308 507q-17 -87 -17 -155q0 -72 29 -145.5t144 -73.5q112 0 244 143t177 244l8 42q-5 105 -75.5 245 t-193.5 140q-104 0 -187 -105.5t-115 -268.5zM1855 507q-48 -239 -191 -383.5t-337 -144.5q-140 0 -231 108.5t-139 262.5q-105 -155 -238.5 -263t-285.5 -108q-179 0 -255.5 129t-76.5 263q0 64 14 136l14 66q47 238 189.5 383.5t336.5 145.5q140 0 231.5 -109t141.5 -262 q107 155 239 263t286 108q176 0 253 -130.5t77 -265.5q0 -63 -14 -133z"/>
<glyph glyph-name="approxequal" horiz-adv-x="1083" unicode="≈" d="M103 447q59 68 124 107t125 39h10q56 0 82.5 -11.5t110.5 -61.5q77 -47 102 -58.5t86 -11.5q56 0 123.5 39t119.5 104l5 -3l-25 -168q-59 -69 -124 -107.5t-125 -38.5q-56 0 -89.5 14t-98.5 55q-92 54 -114.5 64t-77.5 10h-11q-57 0 -124 -39.5t-119 -103.5l-5 3z M198 874q58 68 123 107t126 39h9q57 0 84 -12t109 -61q72 -44 100.5 -56.5t89.5 -12.5q56 0 123 38.5t120 103.5l5 -3l-26 -167q-59 -69 -124 -107.5t-124 -38.5q-57 0 -91 14.5t-98 54.5q-84 50 -110.5 61.5t-82.5 11.5h-10q-57 0 -124.5 -39t-118.5 -103l-5 3z"/>
<glyph glyph-name="notequal" horiz-adv-x="1010" unicode="≠" d="M856 987h178l-32 -164h-260l-175 -252h384l-33 -164h-465l-168 -242l-75 60l126 182h-193l33 164h274l175 252h-398l32 164h480l183 262l75 -60z"/>
<glyph glyph-name="lessequal" horiz-adv-x="1016" unicode="≤" d="M850 3h-776l31 155h776zM464 704.114l-86 -16.2002v-5.40039l77 -17.1006l468 -205.206l-41 -180.904l-682 341.109l22 97.2021l8 36.9014l834 340.209l-41 -180.904z"/>
<glyph glyph-name="greaterequal" horiz-adv-x="1025" unicode="≥" d="M850 3h-776l31 155h776zM264 919.22l39 175.505l722 -340.209l-8 -36.001l-14 -62.1016l-8 -36.001l-874 -341.109l40 176.404l599 214.206l86 16.2002v5.40039l-77 17.1006z"/>
<glyph glyph-name="lozenge" horiz-adv-x="969" unicode="◊" d="M792 727l-131 512l-5 42l-6 1l-22 -43l-330 -512l132 -511l4 -42l6 -1l23 43zM616 1456h146l227 -729l-515 -727h-145l-228 727z"/>
<glyph glyph-name="one.sup" d="M295 0h-170l131 655h-116l27 134l290 23z" horiz-adv-x="533"/>
<glyph glyph-name="two.sup" d="M587 0h-553l26 130l331 262q75 59 102.5 96.5t36.5 80.5q4 19 4 34q0 29 -12 49q-18 30 -72 29q-56 0 -97.5 -32.5t-50.5 -81.5h-156l-2 6q15 105 106 172t226 67q120 0 182 -65q46 -48 46 -123q0 -26 -6 -56q-18 -86 -66.5 -137t-185.5 -160l-162 -135l2 -6h327z" horiz-adv-x="814"/>
<glyph glyph-name="three.sup" d="M286 471h124q55 0 92 29.5t47 79.5q2 12 2 22q0 32 -20 52q-27 28 -89 27q-46 0 -83 -24.5t-44 -63.5h-159l-2 6q15 101 104 157t210 56q128 0 199 -60q55 -47 55 -122q0 -22 -5 -47q-12 -60 -54 -105t-105 -69q58 -25 84 -73q18 -33 19 -73q0 -19 -4 -39 q-24 -119 -118.5 -177t-234.5 -58q-112 1 -189 59q-57 43 -57 114q0 25 7 54l2 6h160q-3 -13 -3 -25q0 -32 20 -51q28 -27 86 -27q60 0 106 30t55 77q4 22 4 39q1 35 -17 53q-26 26 -93 27h-124l17 87z" horiz-adv-x="828"/>
<glyph glyph-name="four.sup" d="M238 287l2 -5h211l61 305l-5 2l-14 -18zM617 282h114l-26 -130h-114l-30 -152h-166l30 152h-386l13 102l501 547h168z" horiz-adv-x="867"/>
</font>
</defs>
</svg>
